<?xml version="1.0" standalone="no"?>
<!DOCTYPE svg PUBLIC "-//W3C//DTD SVG 1.1//EN" "http://www.w3.org/Graphics/SVG/1.1/DTD/svg11.dtd" >
<svg xmlns="http://www.w3.org/2000/svg">
<metadata></metadata>
<defs>
<font id="true_mediumregular" horiz-adv-x="0" >
<font-face units-per-em="2048" ascent="1638" descent="-410" />
<missing-glyph horiz-adv-x="835" />
<glyph unicode="&#xe37;&#xe48;" d="M-1104 1392v169h502v156h200v-156h92v156h201v-325h-995zM-458 1794v309h201v-309h-201z" />
<glyph unicode="&#xd;" horiz-adv-x="835" />
<glyph unicode=" "  horiz-adv-x="835" />
<glyph unicode="&#x09;" horiz-adv-x="835" />
<glyph unicode="&#xa0;" horiz-adv-x="835" />
<glyph unicode="!" horiz-adv-x="813" d="M291 0v236h231v-236h-231zM291 1457h231l-24 -1049h-179z" />
<glyph unicode="&#x22;" horiz-adv-x="1159" d="M331 947v510h185v-510h-185zM646 947v510h183v-510h-183z" />
<glyph unicode="#" horiz-adv-x="1159" d="M59 433v160h219l41 269h-201v162h222l62 433h158l-62 -433h248l62 433h157l-62 -433h198v-162h-219l-38 -269h198v-160h-222l-59 -433h-162l62 433h-247l-58 -433h-161l62 433h-198zM439 593h245l39 269h-247z" />
<glyph unicode="$" horiz-adv-x="1159" d="M157 1086q0 78 28 144t76.5 116.5t114 83t140.5 45.5v207h121v-201q151 0 296 -53l-27 -191q-53 33 -114 47.5t-134 14.5h-21v-455l121 -65q59 -32 105 -67.5t77.5 -80t48.5 -98.5t17 -125q0 -85 -26.5 -156.5t-75.5 -126t-117 -90t-150 -47.5v-210h-121v198h-24 q-93 0 -169.5 15t-148.5 44l24 201q57 -40 127.5 -59.5t160.5 -19.5h30v507l-71 38q-60 32 -113 67.5t-91.5 80.5t-61 102.5t-22.5 133.5zM378 1092q0 -32 12 -59t31.5 -50t44.5 -41t50 -33v371q-68 -24 -103 -66t-35 -122zM637 183q32 9 59 30t46 49.5t29.5 62.5t10.5 71 q0 42 -11 74.5t-30 57.5t-45.5 43t-58.5 35v-423z" />
<glyph unicode="%" horiz-adv-x="2086" d="M230 1065q0 83 12.5 158.5t47.5 132.5t95 91t156 34q95 0 156 -34t96.5 -91t49 -132.5t13.5 -158.5q0 -80 -15 -155t-52 -134t-97.5 -94.5t-150.5 -35.5t-149.5 35.5t-95.5 94.5t-51 134t-15 155zM414 1065q0 -32 2 -79t14 -90t38 -74t73 -31q46 0 72.5 31t39.5 74t15 90 t2 79q0 36 -0.5 82.5t-12 88t-38 71t-78.5 29.5q-49 0 -74.5 -30t-37 -72.5t-13.5 -89t-2 -79.5zM516 -47l903 1549h151l-906 -1549h-148zM1231 393q0 83 12.5 159t48 133.5t96 91.5t155.5 34t156.5 -35t97 -92t49 -132.5t13.5 -158.5q0 -79 -15 -153.5t-52 -133.5 t-97.5 -94.5t-151.5 -35.5q-89 0 -149.5 35.5t-96.5 94.5t-51 133.5t-15 153.5zM1416 393q0 -32 2.5 -79t14.5 -90t37.5 -73t72.5 -30t73.5 30t39.5 73t15 90t2 79q0 34 -0.5 81t-12 89.5t-38.5 71.5t-79 29q-48 0 -73.5 -30t-37 -73t-14 -90t-2.5 -78z" />
<glyph unicode="&#x26;" horiz-adv-x="1505" d="M174 384q0 81 23 146.5t65.5 118t103 91t132.5 68.5q-28 36 -55.5 72.5t-48 77t-33 86t-12.5 98.5q0 86 30 150t81.5 106.5t121 62.5t147.5 20q71 0 136 -18.5t115 -58.5t79.5 -102t29.5 -148q0 -70 -28 -129t-73.5 -106.5t-103 -83.5t-114.5 -62l298 -340q19 34 35 70 t26.5 77.5t17.5 92t10 112.5h194q-7 -87 -22 -158t-36.5 -131t-49 -111t-59.5 -98l257 -287h-263l-118 142q-78 -91 -177 -128.5t-240 -37.5q-107 0 -194 29.5t-148 83t-94 128t-33 167.5zM396 396q0 -61 23 -109t62.5 -82t91 -53t108.5 -19q51 0 92.5 14.5t75 36t58.5 46 t43 42.5l-351 412q-40 -29 -77 -57t-65 -61t-44.5 -74.5t-16.5 -95.5zM544 1136q0 -38 12 -71.5t30 -63.5t41.5 -57t45.5 -53q34 15 72.5 39t71.5 56t55 72t22 87q0 99 -49 139t-125 40q-36 0 -67.5 -11t-56 -35.5t-38.5 -60t-14 -81.5z" />
<glyph unicode="'" horiz-adv-x="581" d="M198 947v510h186v-510h-186z" />
<glyph unicode="(" horiz-adv-x="696" d="M136 643q0 133 27 255.5t74 236.5t109 223.5t133 217.5h185q-60 -107 -117.5 -218.5t-102.5 -228t-73 -238t-28 -248.5t27 -248.5t71.5 -239t102.5 -229.5t120 -217h-185q-73 105 -135 215.5t-108.5 226t-73 238.5t-26.5 254z" />
<glyph unicode=")" horiz-adv-x="696" d="M27 -291q61 107 119 218.5t103 228.5t72.5 238.5t27.5 248.5t-26.5 248.5t-71 238t-102.5 228t-122 218.5h189q72 -107 135 -216.5t109 -225t73 -237.5t27 -254q0 -134 -27 -256.5t-74 -237t-109.5 -223.5t-133.5 -217h-189z" />
<glyph unicode="*" horiz-adv-x="1159" d="M151 1077l56 178l315 -130l-30 332h189l-32 -332l304 130l59 -178l-328 -68l222 -257l-157 -106l-168 287l-173 -287l-154 106l232 257z" />
<glyph unicode="+" horiz-adv-x="1251" d="M100 436v183h435v438h182v-438h437v-183h-437v-436h-182v436h-435z" />
<glyph unicode="," horiz-adv-x="581" d="M41 -278l133 514h234l-178 -514h-189z" />
<glyph unicode="-" horiz-adv-x="696" d="M80 482v158h536v-158h-536z" />
<glyph unicode="." horiz-adv-x="581" d="M174 0v236h234v-236h-234z" />
<glyph unicode="/" horiz-adv-x="581" d="M-53 -24l501 1505h186l-501 -1505h-186z" />
<glyph unicode="0" horiz-adv-x="1159" d="M86 729q0 80 8.5 167t30 170t57 158.5t91 133t131.5 90.5t177 33q100 0 176.5 -33t131.5 -90.5t91 -133t57.5 -158.5t30.5 -170t9 -167t-9 -167.5t-30.5 -170.5t-57.5 -158.5t-91 -133t-131.5 -90.5t-176.5 -33q-101 0 -177 33t-131.5 90.5t-91 133t-57 158.5t-30 170.5 t-8.5 167.5zM307 729q0 -45 3 -106t12.5 -126t27.5 -128.5t48.5 -112.5t75 -80t107.5 -31q64 0 107.5 31t74 80t48.5 112.5t27 128.5t12 126t3 106q0 46 -3.5 107t-13.5 125t-29 127t-49 112.5t-74 80t-103 30.5q-60 0 -104 -30.5t-75 -80t-49 -112.5t-28.5 -127t-14 -125 t-3.5 -107z" />
<glyph unicode="1" horiz-adv-x="1159" d="M230 1166l354 291h186v-1457h-207v1219l-226 -195z" />
<glyph unicode="2" horiz-adv-x="1159" d="M106 0v222q56 53 122 112t137 124q61 55 134 126t136.5 152t106.5 168t43 176q0 51 -21 93.5t-59 72.5t-89 47.5t-112 17.5q-98 0 -185.5 -29.5t-147.5 -62.5l-20 179q91 36 186.5 59.5t194.5 23.5q98 0 184.5 -26.5t151 -78.5t101.5 -129.5t37 -178.5q0 -91 -43 -183 t-107.5 -179t-137.5 -164t-134 -137q-30 -31 -64 -61.5l-68 -61t-65.5 -59t-58.5 -52.5h699v-171h-921z" />
<glyph unicode="3" horiz-adv-x="1159" d="M106 30l12 196q57 -28 141.5 -54.5t179.5 -26.5q59 0 122 13t113.5 42.5t83.5 77t33 118.5q0 81 -30 134t-80 84.5t-115 43.5t-136 12h-126v174h117q56 0 118.5 11.5t115.5 38.5t88.5 73t35.5 116q0 62 -23.5 105.5t-62 71t-90.5 39.5t-108 12q-99 0 -177.5 -23.5 t-146.5 -56.5l-14 185q36 14 80.5 26t93 21t97.5 13.5t94 4.5q97 0 184 -23.5t152.5 -71.5t105 -123t39.5 -177q0 -68 -26 -125t-69 -98.5t-99.5 -69t-118.5 -38.5v-6q73 -15 133 -44.5t102.5 -74t66 -104t23.5 -136.5q0 -126 -49 -206t-130 -126.5t-184.5 -64t-212.5 -17.5 q-86 0 -175 16.5t-158 37.5z" />
<glyph unicode="4" horiz-adv-x="1159" d="M41 331v173l587 953h299v-953h183v-173h-183v-331h-210v331h-676zM260 504h457v783h-3z" />
<glyph unicode="5" horiz-adv-x="1159" d="M171 21l6 198q33 -18 66 -31.5t69.5 -23.5t77 -14.5t89.5 -4.5q65 0 126.5 19t109.5 56t76.5 90.5t28.5 122.5q0 79 -28 138t-75.5 97.5t-112.5 58t-137 19.5q-96 0 -161.5 -15t-122.5 -41l12 767h805v-170h-607l-12 -390q30 7 77.5 12.5t110.5 5.5q97 0 182.5 -34 t149.5 -94.5t101 -142t37 -177.5q0 -121 -44.5 -212.5t-120 -153.5t-177.5 -93.5t-215 -31.5q-118 0 -195 16t-116 29z" />
<glyph unicode="6" horiz-adv-x="1159" d="M109 673q0 150 27 294t95 259t182 185t286 70q38 0 82.5 -3.5t86 -9.5t77 -15t55.5 -19l-29 -185q-112 62 -260 62q-102 0 -177.5 -44t-125.5 -117t-75 -169t-26 -202l3 3q74 76 151 104.5t167 28.5q106 0 187.5 -34.5t137.5 -96.5t85.5 -146t29.5 -180 q0 -114 -36.5 -203t-100 -151t-148.5 -95t-184 -33q-101 0 -177 28.5t-130.5 78.5t-90 118t-56 145t-28.5 160.5t-8 166.5zM331 451q0 -51 15.5 -105.5t47.5 -99t80 -73t113 -28.5t113.5 26.5t80 69.5t47.5 98t16 112q0 52 -14.5 104t-44.5 94.5t-76 69.5t-110 27 t-114 -22.5t-84 -62.5t-52 -94t-18 -116z" />
<glyph unicode="7" horiz-adv-x="1159" d="M103 1287v170h921v-170l-538 -1287h-229l557 1287h-711z" />
<glyph unicode="8" horiz-adv-x="1159" d="M80 384q0 72 23.5 131.5t65 108t98 84.5t123.5 59v3q-80 27 -133 68t-85 90t-44.5 102t-12.5 106q0 69 32.5 131.5t92.5 110t148 75.5t199 28q109 0 192 -28.5t140.5 -75.5t87 -105t29.5 -118q0 -61 -13.5 -112t-44 -96.5t-81 -86.5t-124.5 -80q67 -22 123.5 -58.5 t98 -85t65 -109.5t23.5 -133q0 -111 -41 -189.5t-110.5 -129t-161.5 -74.5t-195 -24q-92 0 -180 25.5t-158.5 76t-113.5 127t-43 179.5zM300 396q0 -61 26 -107.5t66.5 -78.5t93.5 -48.5t107 -16.5q53 0 100.5 15t84 44.5t58.5 72.5t23 97q2 77 -25.5 125.5t-72.5 81 t-103.5 56.5t-116.5 53q-44 -32 -87 -57.5t-77 -57t-55.5 -74t-21.5 -105.5zM325 1104q0 -74 76 -134.5t224 -131.5q64 50 101.5 87t58 69.5t26.5 63.5t6 67q0 53 -24 88.5t-60.5 57.5t-80 31t-83.5 9q-36 0 -79 -13t-79.5 -38.5t-61 -65t-24.5 -90.5z" />
<glyph unicode="9" horiz-adv-x="1159" d="M92 1000q0 113 36.5 202t99.5 151.5t149.5 95t185.5 32.5q101 0 176.5 -28.5t130 -79t89.5 -118t55 -145t28.5 -161.5t8.5 -167q0 -98 -12 -196t-39.5 -187t-72 -167t-110 -134.5t-154 -89t-202.5 -32.5q-37 0 -81.5 3.5t-86.5 9.5t-77.5 14.5t-55.5 17.5l29 186 q57 -30 123.5 -46t135.5 -16q102 0 178 44t126 117t75.5 169.5t28.5 202.5l-6 -5q-72 -72 -150 -102t-168 -30q-106 0 -187.5 34.5t-137.5 96.5t-85.5 145.5t-29.5 182.5zM316 1006q0 -52 15 -104.5t45 -95t76 -69t108 -26.5q65 0 115.5 23t85.5 63t53 93.5t18 115.5 q0 51 -16 104.5t-48.5 98t-80.5 73.5t-112 29q-66 0 -115 -26t-81 -69t-47.5 -98t-15.5 -112z" />
<glyph unicode=":" horiz-adv-x="581" d="M174 0v236h234v-236h-234zM174 832v233h234v-233h-234z" />
<glyph unicode=";" horiz-adv-x="581" d="M41 -278l133 514h234l-178 -514h-189zM174 832v233h234v-233h-234z" />
<glyph unicode="&#x3c;" horiz-adv-x="1251" d="M95 448v158l1062 468v-183l-823 -363l823 -360v-183z" />
<glyph unicode="=" horiz-adv-x="1251" d="M100 216v186h1054v-186h-1054zM100 655v183h1054v-183h-1054z" />
<glyph unicode="&#x3e;" horiz-adv-x="1251" d="M95 -15v183l823 360l-823 363v183l1062 -468v-158z" />
<glyph unicode="?" horiz-adv-x="1041" d="M154 1413q71 31 157 49.5t190 18.5q86 0 167 -24t144.5 -71.5t102 -119.5t38.5 -165q0 -82 -29.5 -147t-73.5 -122t-93.5 -113t-92.5 -120q-25 -36 -33.5 -73t-8.5 -81v-37h-195v43q0 52 6 90.5t21.5 74t40 70t62.5 78.5q27 32 58 68t56 76t41.5 84.5t16.5 96.5 q0 54 -21 93.5t-55.5 65.5t-80 38.5t-93.5 12.5q-105 0 -181 -23t-127 -60zM408 0v236h232v-236h-232z" />
<glyph unicode="@" horiz-adv-x="1670" d="M106 729q0 171 60 310t164.5 237t242.5 151.5t295 53.5q138 0 264 -45t222.5 -126.5t153 -195.5t56.5 -252q0 -98 -25.5 -179.5t-67 -146.5t-94.5 -112.5t-107 -79t-107 -47.5t-92 -16q-47 0 -82.5 30t-38.5 88h-3q-21 -23 -47.5 -44t-56 -38t-62 -26.5t-64.5 -9.5 q-65 0 -121.5 26.5t-98 72.5t-65.5 107t-24 129q0 97 32.5 191t91 169t141 120.5t183.5 45.5q73 0 134 -32.5t105 -106.5l30 107h159l-139 -529q-8 -22 -14 -46.5t-6 -42.5q3 -24 10.5 -38.5t30.5 -14.5q45 0 90.5 32t81.5 85.5t58.5 124.5t22.5 151q0 122 -43.5 216 t-118.5 158t-176 97t-216 33q-131 0 -240 -47.5t-186.5 -129.5t-120.5 -194.5t-43 -241.5q0 -148 46 -261t127.5 -188.5t194 -114t245.5 -38.5t251.5 49.5t199.5 136.5h160q-51 -77 -118 -139t-147 -104.5t-170 -65t-185 -22.5q-162 0 -303 50.5t-245.5 146.5t-164.5 236.5 t-60 319.5zM593 643q0 -84 45.5 -138t125.5 -54q57 0 106.5 32.5t85 83.5t55 110.5t19.5 113.5q0 38 -13 70.5t-34 56.5t-51.5 37t-63.5 13q-62 0 -112.5 -31t-86.5 -78.5t-56 -105t-20 -110.5z" />
<glyph unicode="A" horiz-adv-x="1505" d="M24 0l622 1457h219l616 -1457h-226l-148 368h-714l-148 -368h-221zM458 538h581l-290 724z" />
<glyph unicode="B" horiz-adv-x="1274" d="M174 0v1457h395q112 0 205.5 -19.5t161.5 -63.5t106 -114t38 -171q0 -148 -81.5 -230.5t-219.5 -115.5v-5q74 -6 136 -32t106.5 -71t69.5 -106.5t25 -138.5q0 -118 -45.5 -194.5t-121.5 -119.5t-176 -59.5t-210 -16.5h-389zM384 171h154q71 0 135.5 9t114.5 35.5 t79.5 72.5t29.5 120q0 84 -34 134.5t-88.5 78t-122.5 35.5t-136 8h-132v-493zM384 835h114q76 0 143 6t117.5 30t80 71t29.5 129q0 65 -25 106.5t-63.5 65.5t-86 34t-94.5 10h-215v-452z" />
<glyph unicode="C" horiz-adv-x="1274" d="M112 735q0 168 57 306t160 235.5t244 151t309 53.5q83 0 165 -13.5t163 -48.5l-20 -200q-135 80 -299 80q-125 0 -228.5 -43t-177 -118.5t-114 -180.5t-40.5 -228q0 -128 43.5 -233.5t118.5 -180.5t175.5 -116.5t213.5 -41.5q39 0 83 5.5t87 14.5t80.5 22.5t64.5 30.5 l13 -203q-41 -16 -85.5 -27t-88.5 -16t-84.5 -6.5t-72.5 -1.5q-174 0 -315 53.5t-241.5 152.5t-155.5 239.5t-55 313.5z" />
<glyph unicode="D" horiz-adv-x="1505" d="M174 0v1457h428q164 0 305 -49t246 -140.5t165.5 -224t60.5 -300.5q0 -184 -54 -323t-154 -232t-244.5 -140.5t-324.5 -47.5h-428zM384 183h215q269 0 415 133.5t146 415.5q0 129 -41 229.5t-113.5 169.5t-170 106t-210.5 37h-241v-1091z" />
<glyph unicode="E" horiz-adv-x="1159" d="M195 0v1457h817v-183h-607v-427h554v-183h-554v-481h607v-183h-817z" />
<glyph unicode="F" horiz-adv-x="1041" d="M174 0v1457h773v-183h-563v-427h537v-183h-537v-664h-210z" />
<glyph unicode="G" horiz-adv-x="1505" d="M112 735q0 168 57 306t160 235.5t244 151t309 53.5q80 0 139.5 -5t108 -15t90.5 -23t88 -28l-15 -213q-40 26 -80.5 45t-88 32t-105 19t-128.5 6q-125 0 -228.5 -43t-177 -119.5t-114 -180.5t-40.5 -227q0 -128 43.5 -233.5t118.5 -180.5t175.5 -116.5t213.5 -41.5 q53 0 89 3t62 7t44 8.5t36 7.5v442h-305v172h516v-756q-30 -11 -71.5 -22t-96 -21t-123 -16t-154.5 -6q-174 0 -315 53.5t-241.5 152.5t-155.5 239.5t-55 313.5z" />
<glyph unicode="H" horiz-adv-x="1505" d="M195 0v1457h210v-610h696v610h210v-1457h-210v664h-696v-664h-210z" />
<glyph unicode="I" horiz-adv-x="581" d="M186 0v1457h210v-1457h-210z" />
<glyph unicode="J" horiz-adv-x="813" d="M44 0v180q68 -23 133 -23q69 0 115 19.5t73.5 56.5t38 90t10.5 119v1015h208v-1083q0 -77 -19.5 -148.5t-66.5 -126.5t-126 -89t-197 -34q-51 0 -94 6t-75 18z" />
<glyph unicode="K" horiz-adv-x="1392" d="M195 0v1457h210v-640l622 640h278l-686 -690l738 -767h-303l-649 714v-714h-210z" />
<glyph unicode="L" horiz-adv-x="1041" d="M183 0v1457h210v-1274h610v-183h-820z" />
<glyph unicode="M" horiz-adv-x="1970" d="M189 0v1457h343l457 -1209l449 1209h344v-1457h-209v1262h-3l-481 -1262h-204l-483 1262h-6v-1262h-207z" />
<glyph unicode="N" horiz-adv-x="1505" d="M183 0v1457h284l643 -1173h3v1173h211v-1457h-267l-661 1197h-3v-1197h-210z" />
<glyph unicode="O" horiz-adv-x="1623" d="M112 729q0 162 46.5 299.5t136.5 238.5t220.5 157.5t298.5 56.5q164 0 294 -56.5t220 -157.5t137 -238.5t47 -299.5q0 -167 -47 -305.5t-137 -238t-220 -154.5t-294 -55q-168 0 -298.5 55t-220.5 154.5t-136.5 238t-46.5 305.5zM331 729q0 -108 28 -211t86.5 -183.5 t150 -129t218.5 -48.5q125 0 215.5 48.5t149 129t86.5 183.5t28 211q0 111 -29.5 213.5t-89.5 181.5t-149.5 127t-210.5 48t-211.5 -48t-151 -127t-90.5 -181.5t-30 -213.5z" />
<glyph unicode="P" horiz-adv-x="1159" d="M174 0v1457h383q110 0 209 -22t174 -72.5t118 -134t43 -207.5q0 -123 -43 -206.5t-115 -135.5t-164.5 -75t-191.5 -23h-203v-581h-210zM384 767h203q49 0 101 13t95 43t71 79t28 122q0 68 -32 116t-80 77.5t-104.5 43t-105.5 13.5h-176v-507z" />
<glyph unicode="Q" horiz-adv-x="1623" d="M112 729q0 162 46.5 299.5t136.5 238.5t220.5 157.5t298.5 56.5q164 0 294 -56.5t220 -157.5t137 -238.5t47 -299.5q0 -246 -101.5 -427t-291.5 -264l341 -307h-260l-273 254q-13 -3 -27 -4.5t-27 -1.5q-15 -3 -30.5 -3h-28.5q-168 0 -298.5 55t-220.5 154.5t-136.5 238 t-46.5 305.5zM331 729q0 -108 28 -211t86.5 -183.5t150 -129t218.5 -48.5q125 0 215.5 48.5t149 129t86.5 183.5t28 211q0 111 -29.5 213.5t-89.5 181.5t-149.5 127t-210.5 48t-211.5 -48t-151 -127t-90.5 -181.5t-30 -213.5z" />
<glyph unicode="R" horiz-adv-x="1274" d="M174 0v1457h354q109 0 212 -13t181.5 -53.5t126 -118.5t47.5 -207q0 -68 -23 -124t-63.5 -99t-95.5 -72t-119 -41v-3q49 -18 79.5 -48t64.5 -97l275 -581h-239l-222 504q-23 53 -48.5 82t-55 42.5t-64 15.5t-77.5 2h-123v-646h-210zM384 832h176q150 0 233 60.5t83 164.5 q0 100 -75 158.5t-220 58.5h-197v-442z" />
<glyph unicode="S" horiz-adv-x="1041" d="M100 1086q0 96 36 170t98.5 124t148 75.5t183.5 25.5q73 0 153.5 -12t156.5 -41l-29 -191q-39 16 -71 27.5t-62.5 19t-64 11.5t-74.5 4q-43 0 -89.5 -9.5t-83.5 -32t-60 -60t-23 -93.5q0 -70 46.5 -115t116 -82t151 -74t151 -91.5t116.5 -134t47 -199.5 q0 -117 -42.5 -198.5t-115 -133.5t-170 -76t-205.5 -24q-77 0 -152 17.5t-147 41.5l21 195q27 -11 62.5 -24t75.5 -23.5t82.5 -18t82.5 -7.5q44 0 94 13.5t92 42.5t70 74t28 109q0 81 -46 133t-115.5 90.5t-150 74t-150 85.5t-115.5 121.5t-46 185.5z" />
<glyph unicode="T" horiz-adv-x="1159" d="M21 1274v183h1118v-183h-455v-1274h-208v1274h-455z" />
<glyph unicode="U" horiz-adv-x="1505" d="M189 602v855h207v-826q0 -106 18 -193.5t60 -149.5t111 -96.5t170 -34.5t169 34.5t109.5 96.5t59 149.5t17.5 193.5v826h210v-855q0 -306 -148 -466t-417 -160q-270 0 -418 160t-148 466z" />
<glyph unicode="V" horiz-adv-x="1392" d="M12 1457h236l448 -1274h3l461 1274h219l-556 -1457h-260z" />
<glyph unicode="W" horiz-adv-x="2086" d="M3 1457h233l345 -1250h6l310 1250h297l314 -1250h4l350 1250h222l-449 -1457h-271l-316 1274h-6l-319 -1274h-278z" />
<glyph unicode="X" horiz-adv-x="1392" d="M15 0l539 758l-489 699h251l386 -560l387 560h238l-489 -696l538 -761h-263l-429 619l-418 -619h-251z" />
<glyph unicode="Y" horiz-adv-x="1392" d="M21 1457h245l436 -654l423 654h245l-570 -848v-609h-207v609z" />
<glyph unicode="Z" horiz-adv-x="1159" d="M68 0v189l755 1085h-731v183h973v-189l-755 -1085h767v-183h-1009z" />
<glyph unicode="[" horiz-adv-x="696" d="M198 -291v1867h395v-145h-209v-1576h209v-146h-395z" />
<glyph unicode="\" horiz-adv-x="581" d="M-53 1481h186l501 -1505h-186z" />
<glyph unicode="]" horiz-adv-x="696" d="M103 -145h210v1576h-210v145h395v-1867h-395v146z" />
<glyph unicode="^" horiz-adv-x="1251" d="M124 613l417 844h170l414 -844h-184l-316 652l-312 -652h-189z" />
<glyph unicode="_" horiz-adv-x="1041" d="M0 -157h1042v-103h-1042v103z" />
<glyph unicode="`" horiz-adv-x="581" d="M15 1512h227l185 -299h-140z" />
<glyph unicode="a" horiz-adv-x="1159" d="M95 307q0 101 49 168t123 108t161 58t162 17q58 0 105.5 -0.5t104.5 -5.5q0 139 -58.5 208.5t-206.5 69.5q-80 0 -164 -28t-141 -79l-14 166q75 44 163 72t190 28q114 0 194.5 -28t132 -83t75.5 -137.5t24 -191.5v-442q0 -91 3 -137.5t8 -69.5h-186v139h-3 q-18 -24 -47 -53t-69.5 -53t-94 -40.5t-120.5 -16.5q-86 0 -157.5 19t-123.5 59t-81 102.5t-29 150.5zM307 307q0 -43 18 -75.5t46.5 -54t63.5 -33t69 -11.5q73 0 128 21t92 59t56.5 89t19.5 112v93q-31 0 -62 1.5t-65 1.5q-25 0 -63 -2t-78.5 -9t-80.5 -19.5t-72.5 -35.5 t-52 -57t-19.5 -80z" />
<glyph unicode="b" horiz-adv-x="1274" d="M168 0v1564h194v-646h6q44 74 128.5 122.5t223.5 48.5q117 0 203 -44t142.5 -118t84.5 -171.5t28 -204.5q0 -109 -26.5 -213t-81.5 -184t-141 -129t-206 -49q-72 0 -130 16t-103.5 41.5t-78 56.5t-52.5 61h-3v-151h-188zM362 528q0 -66 18.5 -136t56 -127.5t97 -94.5 t144.5 -37q79 0 134.5 39t90.5 99t51.5 131t16.5 133q0 72 -16 143t-50.5 127t-90.5 90.5t-136 34.5t-139 -34.5t-98 -91.5t-59 -128.5t-20 -147.5z" />
<glyph unicode="c" horiz-adv-x="927" d="M80 532q0 122 39.5 224t110 176t170.5 115.5t222 41.5q61 0 128 -12t109 -29l-15 -163q-116 45 -213 45q-83 0 -147 -34t-108 -89t-66.5 -126.5t-22.5 -148.5q0 -71 19.5 -142t62.5 -128.5t111 -93t163 -35.5q49 0 106 16t104 46l15 -177q-63 -27 -128 -34.5t-118 -7.5 q-121 0 -220.5 44.5t-171 120t-111 176.5t-39.5 215z" />
<glyph unicode="d" horiz-adv-x="1274" d="M95 551q0 107 29 204.5t86 171.5t144 118t203 44q70 0 125 -13t98 -35.5t74.5 -53.5t54.5 -69h3v646h195v-1564h-186v151h-6q-20 -30 -52.5 -61t-77.5 -56.5t-102.5 -41.5t-128.5 -16q-121 0 -207.5 49t-142.5 129t-82.5 184t-26.5 213zM307 535q0 -62 16.5 -133t51 -131 t90.5 -99t134 -39q84 0 142.5 37t96.5 94.5t56 127.5t18 136q0 76 -19 147.5t-58 128.5t-99 91.5t-140 34.5t-135 -34.5t-89.5 -90.5t-49.5 -127t-15 -143z" />
<glyph unicode="e" horiz-adv-x="1159" d="M95 551q0 118 35.5 217t101 170t158 111t203.5 40q133 0 224 -45.5t146 -126t78.5 -190t23.5 -238.5h-758q0 -80 28.5 -145t76 -112.5t111 -73t132.5 -25.5q49 0 99.5 11.5t95 28t80 35t53.5 34.5v-198q-27 -11 -59 -23t-71 -22t-89.5 -16.5t-117.5 -6.5 q-142 0 -245.5 40.5t-171 116t-101 182t-33.5 236.5zM307 634h549q0 61 -17.5 115t-51.5 94t-83.5 63.5t-113.5 23.5q-72 0 -123.5 -26.5t-85.5 -69.5t-52 -95.5t-22 -104.5z" />
<glyph unicode="f" horiz-adv-x="813" d="M44 906v159h250v98q0 96 15.5 175.5t55.5 135.5t109.5 86t177.5 30q38 0 69 -4t61 -10l-9 -157q-16 8 -41 10t-51 2q-63 0 -101 -18.5t-57.5 -52.5t-25 -81t-5.5 -101v-113h281v-159h-281v-906h-198v906h-250z" />
<glyph unicode="g" horiz-adv-x="1274" d="M95 522q0 103 29.5 204t88.5 182t148.5 131t210.5 50q142 0 223.5 -48.5t125.5 -134.5h6v159h180v-1018q0 -123 -32 -217t-99 -160t-170.5 -100t-245.5 -34q-44 0 -84.5 3t-86 11.5t-96.5 23t-116 36.5l21 183q56 -27 103.5 -46t92 -31t89.5 -17.5t98 -5.5q77 0 139 26 t104.5 73.5t65 116t22.5 153.5v103h-3q-63 -82 -159 -123.5t-199 -41.5q-113 0 -199 43t-142.5 115.5t-85.5 167t-29 196.5zM307 535q0 -76 20 -144t58 -120t92.5 -83t121.5 -31q70 0 127.5 28.5t99 78.5t64 115.5t22.5 139.5q0 83 -19 158t-58 131.5t-98 89t-138 32.5 q-74 0 -129 -36t-91 -93t-54 -128t-18 -138z" />
<glyph unicode="h" horiz-adv-x="1274" d="M168 0v1564h194v-652h6q53 85 142 131t198 46q209 0 304 -121t95 -334v-634h-195v551q0 187 -49 281.5t-176 97.5h-15q-76 0 -131 -28q-61 -32 -100 -90.5t-59 -140.5t-20 -179v-492h-194z" />
<glyph unicode="i" horiz-adv-x="581" d="M180 1302v223h222v-223h-222zM192 0v1065h198v-1065h-198z" />
<glyph unicode="j" horiz-adv-x="581" d="M-35 -455l8 171q18 -6 34.5 -6.5t45.5 -0.5q69 0 104 60t35 163v1133h198v-1103q0 -38 -1.5 -84.5t-11 -94t-28 -92t-52.5 -78.5t-85.5 -55.5t-125.5 -21.5q-30 0 -65 2.5t-56 6.5zM180 1302v223h222v-223h-222z" />
<glyph unicode="k" horiz-adv-x="1159" d="M168 0v1564h194v-930l429 431h266l-494 -472l556 -593h-281l-476 547v-547h-194z" />
<glyph unicode="l" horiz-adv-x="581" d="M192 0v1564h198v-1564h-198z" />
<glyph unicode="m" horiz-adv-x="1855" d="M165 0v1065h184v-156h3q57 94 138.5 137t199.5 43q47 0 92 -12t85.5 -37t72 -63.5t52.5 -91.5q29 56 70.5 95t87.5 63.5t92 35t82 10.5q101 0 171.5 -31t114 -85.5t62.5 -128.5t19 -160v-684h-195v634q0 50 -7.5 102t-27.5 95t-57 71t-96 28q-76 0 -129 -33t-86.5 -89 t-49.5 -127t-16 -146v-535h-195v634q0 50 -7.5 102t-28.5 95t-58 71t-98 28q-75 0 -128 -33t-86 -89t-48.5 -127t-15.5 -146v-535h-197z" />
<glyph unicode="n" horiz-adv-x="1274" d="M168 0v1065h188v-168h6q23 45 59.5 80.5t81.5 60.5t98 38t107 13q209 0 304 -121t95 -334v-634h-195v551q0 187 -49 281.5t-176 97.5h-15q-76 0 -131 -28q-61 -32 -100 -90.5t-59 -140.5t-20 -179v-492h-194z" />
<glyph unicode="o" horiz-adv-x="1274" d="M95 532q0 122 39.5 224t110.5 176t172 115.5t223 41.5q121 0 220 -41.5t170 -115.5t109.5 -176t38.5 -224q0 -114 -39.5 -215t-110.5 -176.5t-169.5 -120t-218.5 -44.5q-121 0 -221 44.5t-172 120t-112 176.5t-40 215zM307 532q0 -71 19.5 -142t60 -128.5t103.5 -93 t150 -35.5q86 0 148 35.5t103 93t60.5 128.5t19.5 142q0 77 -22.5 148.5t-65 126.5t-104.5 89t-139 34q-80 0 -142 -34t-105 -89t-64.5 -126.5t-21.5 -148.5z" />
<glyph unicode="p" horiz-adv-x="1274" d="M168 -439v1504h188v-150h3q20 29 51.5 60t77 55.5t103.5 41.5t129 17q117 0 203 -44t142.5 -118t84.5 -171.5t28 -204.5q0 -109 -26.5 -213t-81.5 -184t-141 -129t-206 -49q-142 0 -226.5 49t-128.5 120h-6v-584h-194zM362 528q0 -66 18.5 -136t56 -127.5t97 -94.5 t144.5 -37q79 0 134.5 39t90.5 99t51.5 131t16.5 133q0 72 -16 143t-50.5 127t-90.5 90.5t-136 34.5t-139 -34.5t-98 -91.5t-59 -128.5t-20 -147.5z" />
<glyph unicode="q" horiz-adv-x="1274" d="M95 551q0 107 29 204.5t86 171.5t144 118t203 44q70 0 127 -17t101.5 -42.5t77 -56.5t52.5 -61h6v153h186v-1504h-195v578h-3q-47 -74 -143 -118.5t-212 -44.5q-121 0 -207.5 49t-142.5 129t-82.5 184t-26.5 213zM307 535q0 -62 16.5 -133t51 -131t90.5 -99t134 -39 q84 0 142.5 37t96.5 94.5t56 127.5t18 136q0 76 -19 147.5t-58 128.5t-99 91.5t-140 34.5t-135 -34.5t-89.5 -90.5t-49.5 -127t-15 -143z" />
<glyph unicode="r" horiz-adv-x="813" d="M168 0v1065h181v-165h7q20 42 49.5 77t65.5 60t77.5 38.5t85.5 13.5q42 0 69.5 -4t57.5 -8v-177q-26 12 -54.5 15t-54.5 3q-65 0 -118.5 -30t-91 -86t-59 -136t-21.5 -180v-486h-194z" />
<glyph unicode="s" horiz-adv-x="813" d="M71 761q0 83 28.5 145t79.5 102.5t119.5 60.5t146.5 20q70 0 129 -12t116 -29l-17 -172q-16 10 -43.5 20t-58 17.5t-58.5 12t-46 4.5q-37 0 -71.5 -7.5t-60 -23.5t-41.5 -40.5t-16 -58.5q0 -54 34.5 -88t86 -60.5t112 -52t111.5 -62t86 -91.5t35 -139q0 -85 -31.5 -147.5 t-84 -103.5t-119.5 -60.5t-140 -19.5q-75 0 -149 10.5t-142 48.5l9 172q29 -18 63.5 -32.5t68 -23.5t63 -13.5t50.5 -4.5q33 0 69 7.5t65 25.5t48 47t19 71q0 48 -34 82t-85.5 62t-111 56t-111 65t-85.5 87.5t-34 124.5z" />
<glyph unicode="t" horiz-adv-x="813" d="M15 906v159h239v246l197 62v-308h281v-159h-281v-581q0 -94 48.5 -143t116.5 -49q47 0 79.5 11.5t53.5 26.5v-168q-33 -9 -76 -18t-92 -9q-151 0 -239 74t-88 234v622h-239z" />
<glyph unicode="u" horiz-adv-x="1274" d="M168 433v632h194v-552q0 -93 11.5 -163.5t37 -118t69.5 -72.5t107 -26h14q76 -1 132 29q61 32 101 90.5t59 140t19 179.5v493h195v-1065h-189v171h-3q-23 -46 -59 -82t-82 -61t-99 -38.5t-109 -13.5q-207 0 -302.5 120.5t-95.5 336.5z" />
<glyph unicode="v" horiz-adv-x="1041" d="M21 1065h218l286 -870h3l298 870h195l-381 -1065h-235z" />
<glyph unicode="w" horiz-adv-x="1738" d="M24 1065h218l244 -882h3l272 882h231l267 -882h3l260 882h192l-344 -1065h-225l-277 894h-6l-269 -894h-225z" />
<glyph unicode="x" horiz-adv-x="1041" d="M21 0l384 557l-346 508h245l231 -381l235 381h219l-343 -508l378 -557h-245l-263 417l-262 -417h-233z" />
<glyph unicode="y" horiz-adv-x="1041" d="M15 1065h215l286 -882h3l295 882h198l-393 -1086q-29 -79 -60 -157.5t-77 -142t-112 -103.5t-163 -40q-47 0 -75.5 5.5t-57.5 10.5l12 161q20 -7 44 -13.5t50 -6.5q43 0 78 18.5t60.5 46.5t44 61t29.5 62.5t16.5 50.5t5.5 27q0 9 -4.5 22t-10.5 29t-13 31.5t-12 29.5z " />
<glyph unicode="z" horiz-adv-x="1041" d="M89 0v171l613 735h-584v159h812v-171l-611 -737h634v-157h-864z" />
<glyph unicode="{" horiz-adv-x="696" d="M77 569v148q32 0 63.5 13.5t57 40t42.5 65t17 88.5v390q0 65 22.5 114t57 82t76.5 49.5t79 16.5h163v-145h-111q-32 0 -52.5 -13.5t-32 -36t-16 -50.5t-4.5 -57v-377q0 -70 -21.5 -116.5t-52.5 -75.5t-63.5 -42.5t-53.5 -16.5v-6q21 -3 53.5 -14t63.5 -40t52.5 -77 t21.5 -125v-372q0 -29 4.5 -56.5t16 -50.5t32 -36.5t52.5 -13.5h111v-146h-163q-37 0 -79 16.5t-76.5 49.5t-57 83t-22.5 115v376q0 54 -17 95t-42.5 69t-57 42t-63.5 14z" />
<glyph unicode="|" horiz-adv-x="463" d="M139 -522v2086h186v-2086h-186z" />
<glyph unicode="}" horiz-adv-x="696" d="M41 -145h110q32 0 51.5 13.5t31 36.5t16 50.5t4.5 56.5v378q0 69 22.5 116t53.5 75.5t63.5 42t51.5 16.5v6q-19 2 -51.5 14t-63.5 40.5t-53.5 77t-22.5 125.5v371q0 29 -4.5 57t-16 50.5t-31 36t-51.5 13.5h-110v145h160q38 0 80 -16.5t77.5 -49.5t58 -82t22.5 -114v-381 q0 -53 16 -93.5t42.5 -68t58 -41t63.5 -13.5v-148q-32 0 -63.5 -14t-58 -40.5t-42.5 -65t-16 -87.5v-389q0 -65 -22.5 -115t-58 -83t-77.5 -49.5t-80 -16.5h-160v146z" />
<glyph unicode="~" horiz-adv-x="1251" d="M145 507q17 32 39.5 63.5t54 56.5t72.5 41t94 16t112.5 -19.5t119.5 -45.5q58 -26 113.5 -52t99.5 -26q32 0 57.5 13.5t47.5 36t41 50.5t37 55l74 -145q-17 -35 -39.5 -66.5t-54 -57t-73.5 -41t-93 -15.5q-53 0 -112 20t-119 45q-59 26 -115.5 51.5t-98.5 25.5 q-32 0 -57.5 -13.5t-47.5 -35.5t-41 -48t-37 -54z" />
<glyph unicode="&#xa4;" horiz-adv-x="1268" d="M12 248l224 219q-94 125 -94 291q0 172 94 284l-224 226l115 108l219 -219q119 89 291 89q83 0 159.5 -24.5t124.5 -64.5l227 219l107 -108l-219 -226q89 -119 89 -284q0 -172 -89 -291l219 -219l-107 -115l-227 223q-23 -19 -54.5 -35t-70.5 -31q-80 -27 -159 -27 q-166 0 -291 93l-219 -223zM297 758q0 -142 96 -248q98 -102 244 -102q139 0 239 102q95 96 95 248q0 69 -25 131t-68.5 109t-105.5 75t-135 28q-145 0 -241 -101q-99 -111 -99 -242z" />
<glyph unicode="&#xa9;" horiz-adv-x="1670" d="M80 729q0 156 59.5 293.5t162.5 239.5t240.5 160.5t292.5 58.5q156 0 293 -58.5t240 -160.5t162.5 -239.5t59.5 -293.5q0 -157 -59.5 -293.5t-162.5 -239t-240 -161.5t-293 -59q-155 0 -292.5 59t-240.5 161.5t-162.5 239t-59.5 293.5zM266 729q0 -133 44.5 -244.5 t121.5 -192.5t181 -126t222 -45t222 45t181 126t121.5 192.5t44.5 244.5t-44.5 244t-121.5 192t-181 126t-222 45t-222 -45t-181 -126t-121.5 -192t-44.5 -244zM427 729q0 97 28 181t82.5 144t132 95t177.5 35q68 0 130.5 -20.5t112 -60.5t82.5 -99t44 -136h-151 q-17 80 -75 124t-140 44q-66 0 -116 -22.5t-83 -63.5t-50 -97t-17 -121q0 -68 18.5 -126t53 -101t84.5 -67t113 -24q86 0 142.5 47.5t69.5 131.5h151q-14 -77 -47 -136.5t-81.5 -101.5t-108 -64t-126.5 -22q-98 0 -176.5 34.5t-133.5 96.5t-85.5 146.5t-30.5 182.5z" />
<glyph unicode="&#xab;" horiz-adv-x="1159" d="M106 563l299 420h182l-268 -420l268 -424h-182zM528 563l298 420h186l-274 -420l274 -424h-186z" />
<glyph unicode="&#xac;" horiz-adv-x="1159" d="M69 448v136h1006v-404h-124v268h-882z" />
<glyph unicode="&#xad;" horiz-adv-x="1251" d="M100 436v183h1054v-183h-1054z" />
<glyph unicode="&#xae;" horiz-adv-x="1670" d="M80 729q0 156 59.5 293.5t162.5 239.5t240.5 160.5t292.5 58.5q156 0 293 -58.5t240 -160.5t162.5 -239.5t59.5 -293.5q0 -157 -59.5 -293.5t-162.5 -239t-240 -161.5t-293 -59q-155 0 -292.5 59t-240.5 161.5t-162.5 239t-59.5 293.5zM266 729q0 -133 44.5 -244.5 t121.5 -192.5t181 -126t222 -45t222 45t181 126t121.5 192.5t44.5 244.5t-44.5 244t-121.5 192t-181 126t-222 45t-222 -45t-181 -126t-121.5 -192t-44.5 -244zM544 307v853h318q154 0 235 -58.5t81 -192.5q0 -112 -59 -167t-166 -64l231 -371h-163l-221 363h-98v-363h-158z M702 791h142q35 0 66.5 4.5t55 18t38 39.5t14.5 68q0 38 -15 60.5t-40 34.5t-56 16t-63 4h-142v-245z" />
<glyph unicode="&#xb0;" horiz-adv-x="816" d="M100 1077q0 60 23 116t64 97.5t96 66.5t119 25q65 0 121.5 -24.5t98 -65t65.5 -96.5t24 -119q0 -64 -24 -120t-65.5 -97.5t-98 -65.5t-121.5 -24q-62 0 -116.5 23.5t-96 65t-65.5 97.5t-24 121zM183 1077q0 -46 17 -86.5t46.5 -71t69.5 -48.5t86 -18q92 0 158 65 q68 70 68 159q0 45 -18 85t-49 69.5t-72 47t-87 17.5q-47 0 -87 -17t-69.5 -46.5t-46 -69.5t-16.5 -86z" />
<glyph unicode="&#xb6;" horiz-adv-x="1097" d="M0 1296q0 231 142 345q136 100 374 100h588v-62h-154v-2047h-94v2047h-219v-2047h-83v1215q-254 0 -397 94q-157 111 -157 355z" />
<glyph unicode="&#xb7;" horiz-adv-x="510" d="M145 678q0 45 31 76t81 31q47 0 77.5 -32.5t30.5 -74.5q0 -47 -32.5 -79.5t-75.5 -32.5q-50 0 -81 31t-31 81z" />
<glyph unicode="&#xbb;" horiz-adv-x="1159" d="M151 139l270 424l-270 420h183l300 -420l-300 -424h-183zM572 139l272 424l-272 420h183l299 -420l-299 -424h-183z" />
<glyph unicode="&#xd7;" horiz-adv-x="1251" d="M142 174l356 354l-356 357l130 127l353 -357l355 357l130 -127l-355 -357l355 -354l-130 -130l-355 358l-353 -358z" />
<glyph unicode="&#xf7;" horiz-adv-x="1251" d="M100 436v183h1054v-183h-1054zM467 95q0 33 12.5 62t34.5 50t51.5 34t62.5 13q32 0 60 -13t50 -34t34.5 -50t12.5 -62q0 -30 -12.5 -58.5t-34 -51.5t-49.5 -36.5t-58 -13.5q-35 0 -64 13t-52 35t-35.5 51t-12.5 61zM467 959q0 33 12.5 62.5t34.5 50.5t51.5 34t62.5 13 q32 0 60 -13t50 -35t34.5 -51t12.5 -61q0 -29 -12.5 -57.5t-34 -51.5t-49.5 -36.5t-58 -13.5q-35 0 -64 13t-52 35t-35.5 50.5t-12.5 60.5z" />
<glyph unicode="&#xe00;" horiz-adv-x="309" />
<glyph unicode="&#xe01;" horiz-adv-x="1233" d="M109 0v844q0 79 31.5 154.5t95 134t158 94t219.5 35.5q127 0 222 -35.5t160 -93.5t97.5 -133.5t32.5 -155.5v-844h-201v808q0 75 -25.5 129.5t-68.5 89.5t-100 51.5t-117 16.5t-115.5 -16.5t-97 -51.5t-66 -89.5t-24.5 -129.5v-808h-201z" />
<glyph unicode="&#xe02;" horiz-adv-x="1144" d="M109 368v340q0 74 31 115.5t68 69t68 50t31 60.5q0 51 -42.5 65.5t-110.5 14.5h-45v154h151q50 0 94.5 -8.5t78.5 -30.5t54 -59t23 -94t-11 -94t-37 -63.5t-49 -46.5t-49 -41t-38.5 -48t-15.5 -68v-294q0 -74 23 -122.5t61 -76.5t84.5 -38.5t93.5 -10.5q49 0 96.5 10.5 t84.5 38.5t59.5 76.5t22.5 122.5v847h201v-869q0 -187 -118.5 -289.5t-345.5 -102.5q-225 0 -344 102.5t-119 289.5z" />
<glyph unicode="&#xe03;" horiz-adv-x="1144" d="M77 1057v180h112l86 -62l90 62h133v-145q0 -61 -14 -98.5t-34.5 -63.5t-45.5 -44.5t-45.5 -40.5t-34.5 -51.5t-14 -76.5v-327q0 -74 23 -122.5t61 -76.5t84.5 -38.5t93.5 -10.5q49 0 96.5 10.5t84.5 38.5t59.5 76.5t22.5 122.5v847h201v-869q0 -187 -118.5 -289.5 t-345.5 -102.5q-225 0 -344 102.5t-119 289.5v390q0 71 29.5 108.5t65 64t64.5 51.5t29 69v6h-220z" />
<glyph unicode="&#xe04;" horiz-adv-x="1233" d="M109 0v853q0 80 32.5 154t95.5 130.5t158.5 90.5t220.5 34q127 0 222 -34t158.5 -90.5t96 -130.5t32.5 -154v-853h-201v826q0 72 -26.5 123t-69.5 83.5t-99 47.5t-113 15t-112.5 -15t-98.5 -47.5t-69 -83.5t-26 -123v-133h289v-180h-289v-513h-201z" />
<glyph unicode="&#xe05;" horiz-adv-x="1233" d="M109 0v912q0 74 27 134.5t72.5 104t105 72.5t122.5 39l180 -140l181 140q64 -10 123.5 -39t105 -72.5t72.5 -104t27 -134.5v-912h-201v906q0 65 -31.5 105t-75.5 60l-201 -150l-199 150q-44 -20 -75.5 -60t-31.5 -105v-213h289v-180h-289v-513h-201z" />
<glyph unicode="&#xe06;" horiz-adv-x="1233" d="M77 1057v180h112l86 -62l90 62h133v-145q0 -61 -14 -98.5t-34.5 -63.5t-45.5 -44.5t-45.5 -40.5t-34.5 -51.5t-14 -76.5v-250q0 -58 25.5 -117.5t71.5 -108t109.5 -80t138.5 -31.5q132 0 200.5 80.5t68.5 222.5v804h201v-850q0 -79 -23.5 -152t-71 -129t-121.5 -90 t-174 -34q-134 0 -239 45t-186 141v-168h-201v758q0 71 29.5 108.5t65 64t64.5 51.5t29 69v6h-220z" />
<glyph unicode="&#xe07;" horiz-adv-x="1147" d="M47 1237h213l154 -1069h173q46 0 95.5 17t90.5 71t68 151t27 257q0 118 -25 196t-67 124t-98.5 63.5t-120.5 12.5v177h98q114 0 192.5 -44t128 -121t72.5 -180.5t23 -221.5q0 -326 -103 -498t-310 -172h-432z" />
<glyph unicode="&#xe08;" horiz-adv-x="1141" d="M24 912q14 71 54 134.5t105 111.5t152.5 76t199.5 28q135 0 235.5 -46t167 -127.5t97.5 -194t30 -245.5q-3 -154 -35 -274.5t-90 -203.5t-143.5 -127t-194.5 -44h-369l-62 498q-8 56 -25.5 80t-65.5 24h-33v162h183q52 0 83 -31t39 -78l62 -487h143q49 0 102.5 24 t98.5 80.5t74.5 148.5t29.5 228q0 118 -27 202t-74.5 138t-111 80t-136.5 26q-104 0 -175 -50.5t-96 -132.5h-218z" />
<glyph unicode="&#xe09;" horiz-adv-x="1209" d="M47 602v162h154q53 0 84 -32.5t31 -79.5v-247q0 -142 60 -208.5t193 -66.5q76 0 137 31.5t104 80t66.5 108t23.5 117.5v327q0 82 -25.5 139.5t-70 94.5t-103.5 53.5t-126 16.5q-50 0 -99 -10.5t-91 -32.5t-72.5 -57.5t-43.5 -85.5h-213q15 83 59.5 148t114 110.5 t159.5 68.5t195 23q120 0 215.5 -31.5t162 -86.5t103 -131.5t36.5 -165.5v-847h-201v168q-82 -96 -179 -141t-232 -45q-99 0 -170 28t-116.5 77.5t-66.5 119t-21 152.5v173q0 37 -10 53.5t-40 16.5h-18z" />
<glyph unicode="&#xe0a;" horiz-adv-x="1132" d="M109 0v1237h201v-1077h169q71 0 136.5 13t115.5 48.5t80 96t30 155.5q0 77 -22 136.5t-60.5 99.5t-92.5 61t-119 21v147q57 0 111.5 15.5t96 51t65.5 93t21 139.5h213q5 -59 -9 -117t-47 -108t-87.5 -88.5t-131.5 -58.5v-3q56 -21 106 -55t87.5 -84.5t59.5 -119 t22 -158.5q0 -117 -37 -202.5t-103.5 -141.5t-157 -82.5t-196.5 -24.5z" />
<glyph unicode="&#xe0b;" horiz-adv-x="1132" d="M77 1057v180h112l86 -62l90 62h133v-145q0 -61 -14 -98.5t-34.5 -63.5t-45.5 -44.5t-45.5 -40.5t-34.5 -51.5t-14 -76.5v-557h169q71 0 136.5 13t115.5 48.5t80 96t30 155.5q0 77 -22 136.5t-60.5 99.5t-92.5 61t-119 21v147q57 0 111.5 15.5t96 51t65.5 93t21 139.5h213 q5 -59 -9 -117t-47 -108t-87.5 -88.5t-131.5 -58.5v-3q56 -21 106 -55t87.5 -84.5t59.5 -119t22 -158.5q0 -117 -37 -202.5t-103.5 -141.5t-157 -82.5t-196.5 -24.5l-451 6v758q0 71 29.5 108.5t65 64t64.5 51.5t29 69v6h-220z" />
<glyph unicode="&#xe0c;" horiz-adv-x="2006" d="M86 906q18 72 61 136.5t109.5 113.5t156.5 77.5t200 28.5q131 0 228 -32.5t160.5 -88t93.5 -129t30 -156.5v-432q0 -69 25 -122t66.5 -88.5t98 -53.5t119.5 -18q124 0 193.5 71t69.5 217v807h201v-859q0 -94 -29.5 -168t-81.5 -124.5t-124.5 -77t-160.5 -26.5 q-137 0 -225.5 38.5t-151.5 115.5v-136h-201v826q0 68 -26.5 118t-69.5 84t-99 50.5t-116 16.5q-53 0 -101 -13t-88 -35.5t-69 -53.5t-42 -69l151 -98q-28 -11 -55 -29.5t-49 -42t-36 -50t-14 -52.5v-478h185v-174h-386v634q0 27 11 55t30 52.5t44.5 43t53.5 29.5z" />
<glyph unicode="&#xe0d;" horiz-adv-x="1976" d="M86 906q18 72 61 136.5t109.5 113.5t156.5 77.5t200 28.5q131 0 228 -32.5t160.5 -88t93.5 -129t30 -156.5v-448q0 -85 20.5 -138.5t54.5 -83.5t79 -41.5t94 -11.5q51 0 104 22t95 62t68.5 96.5t26.5 125.5v798h201v-1142q0 -92 -24 -171.5t-81 -136.5t-151 -90.5 t-233 -33.5h-455v177h443q80 0 137 19t93.5 51.5t53 74.5t16.5 89v47q-42 -42 -86.5 -69.5t-91.5 -43.5t-95.5 -22.5t-94.5 -6.5q-79 0 -147.5 22.5t-119 67t-79.5 112t-29 156.5v489q0 68 -26.5 118t-69.5 84t-99 50.5t-116 16.5q-53 0 -101 -13t-88 -35.5t-69 -53.5 t-42 -69l151 -98q-28 -11 -55 -29.5t-49 -42t-36 -50t-14 -52.5v-478h185v-174h-386v634q0 27 11 55t30 52.5t44.5 43t53.5 29.5z" />
<glyph unicode="&#xe0e;" horiz-adv-x="1248" d="M0 0v174h124v460q0 27 11 55t30 52.5t45 43t53 29.5l-160 92q16 72 59 136.5t109.5 113.5t156.5 77.5t200 28.5q132 0 228.5 -32.5t160 -88t94.5 -129t31 -156.5v-1273h-407l-151 110l-148 -110h-312v166h269l191 133l192 -133h165v1077q0 68 -26.5 118t-70.5 84 t-99.5 50.5t-116.5 16.5q-53 0 -100.5 -13t-87.5 -35.5t-69.5 -53.5t-42.5 -69l151 -98q-28 -11 -55 -29.5t-49 -42t-36 -50t-14 -52.5v-652h-325z" />
<glyph unicode="&#xe0f;" horiz-adv-x="1248" d="M0 0v174h124v460q0 27 11 55t30 52.5t45 43t53 29.5l-160 92q16 72 59 136.5t109.5 113.5t156.5 77.5t200 28.5q132 0 228.5 -32.5t160 -88t94.5 -129t31 -156.5v-1273h-375l-151 110l-149 -110h-343v290h195v-124h105l192 133l192 -133h133v1077q0 68 -26.5 118 t-70.5 84t-99.5 50.5t-116.5 16.5q-53 0 -100.5 -13t-87.5 -35.5t-69.5 -53.5t-42.5 -69l151 -98q-28 -11 -55 -29.5t-49 -42t-36 -50t-14 -52.5v-652h-325z" />
<glyph unicode="&#xe10;" horiz-adv-x="1141" d="M24 912q14 71 54 134.5t105 111.5t152.5 76t199.5 28q120 0 217 -37q30 22 43 51.5t16 53.5h243q-9 -53 -50 -105.5t-119 -79.5q93 -85 138 -211t42 -285q-5 -154 -36.5 -274.5t-90 -203.5t-143 -127t-193.5 -44h-369l-62 498q-8 56 -25.5 80t-65.5 24h-33v162h183 q52 0 83 -31t39 -78l62 -487h143q49 0 102.5 24t98.5 80.5t74.5 148.5t29.5 228q0 118 -27 202t-74.5 138t-111 80t-136.5 26q-104 0 -175 -50.5t-96 -132.5h-218zM109 -251h237l192 133l191 -133h109v121h201v-287h-349l-152 110l-148 -110h-281v166z" />
<glyph unicode="&#xe11;" horiz-adv-x="1230" d="M77 1057v180h112l86 -62l90 62h133v-145q0 -61 -14 -98.5t-34.5 -63.5t-45.5 -44.5t-45.5 -40.5t-34.5 -51.5t-14 -76.5v-420l522 940h112q81 0 129.5 -46t48.5 -140v-1051h-201v1033l-575 -1033h-237v758q0 71 29.5 108.5t65 64t64.5 51.5t29 69v6h-220z" />
<glyph unicode="&#xe12;" horiz-adv-x="2047" d="M77 634q0 147 44 264t117 196t170.5 118.5t204.5 33.5l169 -148l162 139h222v-813q0 -69 24 -122t66.5 -88.5t99 -53.5t119.5 -18q123 0 193 71t70 217v807h201v-859q0 -94 -29.5 -168t-81.5 -124.5t-124.5 -77t-160.5 -26.5q-137 0 -226 39t-151 115v-136h-201v1057 l-183 -169l-207 180q-31 1 -82 -22.5t-97.5 -76t-80.5 -136t-34 -199.5q0 -148 40.5 -242.5t102.5 -145.5t134 -64.5t135 1.5v-183q-139 -23 -253 13.5t-194.5 121t-124.5 212t-44 287.5z" />
<glyph unicode="&#xe13;" horiz-adv-x="2006" d="M86 906q18 72 61 136.5t109.5 113.5t156.5 77.5t200 28.5q131 0 228 -32.5t160.5 -88t93.5 -129t30 -156.5v-426q0 -146 70 -217t194 -71q64 0 119.5 18t98 53.5t66.5 88.5t24 122v813h201v-1237h-201v136q-62 -76 -151 -115t-226 -39q-86 0 -159.5 26.5t-125.5 77 t-81.5 124.5t-29.5 168v448q0 68 -26.5 118t-69.5 84t-99 50.5t-116 16.5q-53 0 -101 -13t-88 -35.5t-69 -53.5t-42 -69l151 -98q-28 -11 -55 -29.5t-49 -42t-36 -50t-14 -52.5v-478h185v-174h-386v634q0 27 11 55t30 52.5t44.5 43t53.5 29.5z" />
<glyph unicode="&#xe14;" horiz-adv-x="1251" d="M77 619q0 125 38.5 238.5t113.5 199t184 135t251 48.5l481 -3v-1237h-201v1065l-233 3q-84 1 -162 -25.5t-137.5 -83t-95 -145t-35.5 -212.5q0 -131 40 -219.5t101 -139.5t133.5 -64.5t137.5 4.5v-183q-125 -26 -237 4.5t-196.5 111t-133.5 208t-49 295.5z" />
<glyph unicode="&#xe15;" horiz-adv-x="1274" d="M77 634q0 147 44 264t117 196t170.5 118.5t204.5 33.5l169 -148l162 139h222v-1237h-201v1057l-183 -169l-207 180q-31 1 -82 -22.5t-97.5 -76t-80.5 -136t-34 -199.5q0 -148 40.5 -242.5t102.5 -145.5t134 -64.5t135 1.5v-183q-139 -23 -253 13.5t-194.5 121t-124.5 212 t-44 287.5z" />
<glyph unicode="&#xe16;" horiz-adv-x="1233" d="M86 906q18 72 61 136.5t109.5 113.5t156.5 77.5t200 28.5q131 0 228 -32.5t160.5 -88t93.5 -129t30 -156.5v-856h-201v826q0 68 -26.5 118t-69.5 84t-99 50.5t-116 16.5q-53 0 -101 -13t-88 -35.5t-69 -53.5t-42 -69l151 -98q-28 -11 -55 -29.5t-49 -42t-36 -50 t-14 -52.5v-478h185v-174h-386v634q0 27 11 55t30 52.5t44.5 43t53.5 29.5z" />
<glyph unicode="&#xe17;" horiz-adv-x="1233" d="M109 0v1237h201v-166q57 78 161 131t237 53q106 0 184.5 -34t130.5 -90t77 -129t25 -152v-850h-201v803q0 142 -68.5 223t-200.5 81q-75 0 -138.5 -34t-109.5 -85.5t-71.5 -114t-25.5 -118.5v-755h-201z" />
<glyph unicode="&#xe18;" horiz-adv-x="1197" d="M80 906q0 72 33 136.5t97.5 113.5t157.5 77.5t210 28.5q135 0 233 -30t161.5 -80t94.5 -115t31 -134h-201q0 47 -29.5 81t-75.5 56.5t-102 34t-109 11.5q-68 0 -123 -14.5t-93.5 -38t-59.5 -56t-21 -68.5q0 -44 35.5 -71t93 -43.5t131.5 -29t151.5 -26t151.5 -33.5 t131.5 -54t93 -87t35.5 -132v-433h-1015v554h202v-374h612v210q0 57 -35.5 91t-93.5 54.5t-132 32.5t-152 25t-152 31.5t-132 52.5t-93.5 89t-35.5 140z" />
<glyph unicode="&#xe19;" horiz-adv-x="1233" d="M109 387v850h77q124 0 124 -136v-668q0 -142 68.5 -222.5t199.5 -80.5q76 0 139.5 31.5t109.5 80t71.5 108t25.5 117.5v770h201v-1237h-201v168q-81 -96 -185.5 -141t-240.5 -45q-99 0 -172.5 34t-121.5 90t-71.5 129t-23.5 152z" />
<glyph unicode="&#xe1a;" horiz-adv-x="1233" d="M109 384v853h77q124 0 124 -136v-690q0 -73 26 -123.5t69 -83t98.5 -47.5t112.5 -15t113 15t99 47.5t69.5 83t26.5 123.5v826h201v-853q0 -80 -32.5 -153.5t-96 -130t-158.5 -90.5t-222 -34q-125 0 -220.5 34t-158.5 90.5t-95.5 130t-32.5 153.5z" />
<glyph unicode="&#xe1b;" horiz-adv-x="1233" d="M109 384v853h77q124 0 124 -136v-690q0 -73 26 -123.5t69 -83t98.5 -47.5t112.5 -15t113 15t99 47.5t69.5 83t26.5 123.5v1135h201v-1162q0 -80 -32.5 -153.5t-96 -130t-158.5 -90.5t-222 -34q-125 0 -220.5 34t-158.5 90.5t-95.5 130t-32.5 153.5z" />
<glyph unicode="&#xe1c;" horiz-adv-x="1440" d="M44 1237h349v-148h-130l118 -808h6l259 956h154l260 -956h8l142 956h194l-191 -1237h-242l-245 915h-6l-244 -915h-240z" />
<glyph unicode="&#xe1d;" horiz-adv-x="1440" d="M44 1237h349v-148h-130l118 -808h6l259 956h154l260 -956h8l194 1289h195l-244 -1570h-242l-245 915h-6l-244 -915h-240z" />
<glyph unicode="&#xe1e;" horiz-adv-x="1440" d="M44 1237h198l139 -956h6l259 956h154l260 -956h8l142 956h194l-191 -1237h-242l-245 915h-6l-244 -915h-240z" />
<glyph unicode="&#xe1f;" horiz-adv-x="1440" d="M44 1237h198l139 -956h6l259 956h154l260 -956h8l191 1265h195l-241 -1546h-242l-245 915h-6l-244 -915h-240z" />
<glyph unicode="&#xe20;" horiz-adv-x="1248" d="M0 0v174h124v460q0 27 11 55t30 52.5t45 43t53 29.5l-160 92q16 72 59 136.5t109.5 113.5t156.5 77.5t200 28.5q132 0 228.5 -32.5t160 -88t94.5 -129t31 -156.5v-856h-201v826q0 68 -26.5 118t-70.5 84t-99.5 50.5t-116.5 16.5q-53 0 -100.5 -13t-87.5 -35.5 t-69.5 -53.5t-42.5 -69l151 -98q-28 -11 -55 -29.5t-49 -42t-36 -50t-14 -52.5v-652h-325z" />
<glyph unicode="&#xe21;" horiz-adv-x="1233" d="M109 0v1237h77q124 0 124 -136v-634q0 -58 25.5 -117.5t71.5 -108t109.5 -80t138.5 -31.5q132 0 200.5 80.5t68.5 222.5v804h201v-850q0 -79 -23.5 -152t-71 -129t-121.5 -90t-174 -34q-134 0 -239 45t-186 141v-168h-201z" />
<glyph unicode="&#xe22;" horiz-adv-x="1221" d="M62 349q0 63 19 116t53 95t80 71t99 42v8q-44 9 -84 28t-69.5 51.5t-47 79t-17.5 110.5q0 60 23.5 113t66.5 93t104 62.5t135 21.5l160 -3v-172l-46 3q-49 3 -91 -5.5t-73 -27.5t-49 -49t-18 -71q0 -48 24 -79t62.5 -47.5t88.5 -22.5t102 -5v-174q-59 2 -114 -11 t-96.5 -40t-67 -68t-25.5 -94q0 -70 28 -111t72.5 -62t102 -26.5t115.5 -3.5l313 6v1060h201v-1237l-643 -6q-106 -2 -183 26t-127 76.5t-74 113.5t-24 139z" />
<glyph unicode="&#xe23;" horiz-adv-x="1162" d="M62 387h210q7 -77 39.5 -125.5t78.5 -75.5t100 -37t103 -10q58 0 111 14.5t93.5 43.5t65.5 74.5t25 106.5q0 66 -35 103t-92 57.5t-130.5 29.5t-149.5 17t-148.5 22.5t-130 46.5t-91.5 85.5t-34 142.5q0 86 36 156t100.5 120t152 77t191.5 27q110 0 204 -26t164 -75.5 t112.5 -119.5t51.5 -159h-204q-9 57 -41 98t-76.5 67.5t-98 38.5t-106.5 12t-104 -14.5t-91 -40t-65 -64t-25 -85.5q0 -50 34.5 -75.5t92 -39t130 -20t149 -15.5t148.5 -27.5t129.5 -58t92.5 -105t35 -166.5q0 -108 -38.5 -185t-106 -127.5t-159.5 -74.5t-201 -24 q-113 0 -208 25t-164 76t-108 128t-42 182z" />
<glyph unicode="&#xe24;" horiz-adv-x="1233" d="M86 906q18 72 61 136.5t109.5 113.5t156.5 77.5t200 28.5q131 0 228 -32.5t160.5 -88t93.5 -129t30 -156.5v-1227h-201v1197q0 68 -26.5 118t-69.5 84t-99 50.5t-116 16.5q-53 0 -101 -13t-88 -35.5t-69 -53.5t-42 -69l151 -98q-28 -11 -55 -29.5t-49 -42t-36 -50 t-14 -52.5v-478h185v-174h-386v634q0 27 11 55t30 52.5t44.5 43t53.5 29.5z" />
<glyph unicode="&#xe25;" horiz-adv-x="1224" d="M77 396q0 95 37 177t103.5 142t157 94.5t197.5 34.5q73 0 132.5 -12t103.5 -28.5t71 -33.5t36 -27v110q0 64 -25 109t-67 74.5t-96.5 44t-113.5 14.5q-56 0 -106.5 -13t-90.5 -38t-68 -62t-38 -85h-210q7 74 46.5 140.5t105 116t155.5 79t199 29.5q123 0 219 -28t160 -79 t97.5 -121.5t33.5 -154.5v-879h-201v516q-11 23 -37 49.5t-66 50t-92.5 39t-113.5 15.5q-70 0 -130.5 -19.5t-105 -55.5t-70 -86.5t-25.5 -112.5q0 -73 31 -123.5t80.5 -77.5t112.5 -32.5t126 11.5v-177q-104 -20 -202 -8.5t-175 58.5t-124 133t-47 216z" />
<glyph unicode="&#xe26;" horiz-adv-x="1248" d="M0 0v174h124v460q0 27 11 55t30 52.5t45 43t53 29.5l-160 92q16 72 59 136.5t109.5 113.5t156.5 77.5t200 28.5q132 0 228.5 -32.5t160 -88t94.5 -129t31 -156.5v-1227h-201v1197q0 68 -26.5 118t-70.5 84t-99.5 50.5t-116.5 16.5q-53 0 -100.5 -13t-87.5 -35.5 t-69.5 -53.5t-42.5 -69l151 -98q-28 -11 -55 -29.5t-49 -42t-36 -50t-14 -52.5v-652h-325z" />
<glyph unicode="&#xe27;" horiz-adv-x="1165" d="M62 362h219q10 -42 36 -78t62 -62.5t80.5 -41.5t94.5 -15q52 0 108.5 15.5t103 64t77 137.5t30.5 237q0 147 -30.5 236.5t-77 138t-103 64.5t-108.5 16q-50 0 -94.5 -15.5t-80.5 -42.5t-62 -63t-36 -77h-219q9 78 48 148.5t104 123t153 83.5t193 31q138 0 237.5 -43.5 t164.5 -126t96 -202.5t31 -271q0 -152 -31 -271.5t-96 -202.5t-164.5 -126t-237.5 -43q-105 0 -193 31t-153 83t-104 122t-48 150z" />
<glyph unicode="&#xe28;" horiz-adv-x="1233" d="M109 0v853q0 80 32.5 154t95.5 130.5t158.5 90.5t220.5 34q68 0 125.5 -9.5t108.5 -27.5q30 22 43 51.5t16 53.5h245q-9 -53 -50.5 -102t-114.5 -83q68 -56 102 -131.5t34 -160.5v-853h-201v826q0 72 -26.5 123t-69.5 83.5t-99 47.5t-113 15t-112.5 -15t-98.5 -47.5 t-69 -83.5t-26 -123v-133h289v-180h-289v-513h-201z" />
<glyph unicode="&#xe29;" horiz-adv-x="1233" d="M109 384v853h201v-826q0 -73 26 -123.5t69 -83t98.5 -47.5t112.5 -15t113 15t99 47.5t69.5 83t26.5 123.5v223q-16 -53 -61 -88.5t-102 -35.5q-35 0 -66 14t-54 37t-37 54t-14 66t14 66t37 53.5t54 36t66 13.5q57 0 102 -35.5t61 -91.5v514h201v-853q0 -80 -32.5 -153.5 t-96 -130t-158.5 -90.5t-222 -34q-125 0 -220.5 34t-158.5 90.5t-95.5 130t-32.5 153.5z" />
<glyph unicode="&#xe2a;" horiz-adv-x="1224" d="M77 396q0 95 37 177t103.5 142t157 94.5t197.5 34.5q73 0 132.5 -12t103.5 -28.5t71 -33.5t36 -27v110q0 64 -25 109t-67 74.5t-96.5 44t-113.5 14.5q-56 0 -106.5 -13t-90.5 -38t-68 -62t-38 -85h-210q7 74 46.5 140.5t105 116t155.5 79t199 29.5q72 0 134.5 -9.5 t115.5 -27.5q30 22 43 51.5t16 53.5h245q-9 -51 -50 -103t-110 -82q116 -103 116 -266v-879h-201v516q-11 23 -37 49.5t-66 50t-92.5 39t-113.5 15.5q-70 0 -130.5 -19.5t-105 -55.5t-70 -86.5t-25.5 -112.5q0 -73 31 -123.5t80.5 -77.5t112.5 -32.5t126 11.5v-177 q-104 -20 -202 -8.5t-175 58.5t-124 133t-47 216z" />
<glyph unicode="&#xe2b;" horiz-adv-x="1233" d="M109 0v1237h201v-346q10 10 38 35t69.5 52.5t96 51.5t120.5 35h-155v172h646v-172h-278q74 -13 127 -45t86 -79t49 -106t16 -124v-711h-201v637q0 62 -10.5 114t-35.5 89t-67 57.5t-106 20.5q-69 0 -140 -34.5t-127.5 -88.5t-92 -117t-35.5 -121v-557h-201z" />
<glyph unicode="&#xe2c;" horiz-adv-x="1440" d="M44 1237h198l139 -956h6l259 956h154l260 -956h8l101 681q13 90 -17 143t-125 70v124q99 12 157.5 61t67.5 148q0 8 1 14q0 6 1 13t1 11h199l-10 -62q-6 -34 -15.5 -72.5t-30.5 -73.5t-57 -61.5t-95 -36.5v-6q42 -12 68.5 -35.5t40 -54t16.5 -64.5t-1 -65l-157 -1015 h-242l-245 915h-6l-244 -915h-240z" />
<glyph unicode="&#xe2d;" horiz-adv-x="1357" d="M77 622q0 39 3 68.5t3 38.5h572v-166h-358q8 -112 44.5 -189t89 -125t117.5 -70t130 -22q69 0 139.5 25t125.5 80t90 143.5t35 216.5q0 127 -35 214.5t-90 142t-125.5 78t-139.5 23.5q-51 0 -103.5 -13t-98.5 -41t-84.5 -74t-63.5 -114l-204 59q63 172 206.5 268.5 t347.5 96.5q140 0 251 -46t189.5 -129.5t120 -201.5t41.5 -263t-41.5 -264t-120 -204t-189.5 -131.5t-251 -46.5q-139 0 -250.5 46.5t-189.5 131.5t-119.5 204t-41.5 264z" />
<glyph unicode="&#xe2e;" horiz-adv-x="1357" d="M77 622q0 39 3 68.5t3 38.5h572v-166h-358q8 -112 44.5 -189t89 -125t117.5 -70t130 -22q69 0 139.5 25t125.5 80t90 143.5t35 216.5q0 127 -35 214.5t-90 142t-125.5 78t-139.5 23.5q-51 0 -103.5 -13t-98.5 -41t-84.5 -74t-63.5 -114l-204 59q63 172 206.5 268.5 t347.5 96.5q68 0 129 -11t114 -32q30 25 43 56t16 55h245q-9 -51 -51.5 -102.5t-119.5 -82.5q110 -82 168 -215.5t58 -307.5q0 -145 -41.5 -264t-120 -204t-189.5 -131.5t-251 -46.5q-139 0 -250.5 46.5t-189.5 131.5t-119.5 204t-41.5 264z" />
<glyph unicode="&#xe2f;" horiz-adv-x="1150" d="M77 1021q0 50 16.5 90.5t46 69.5t69.5 44.5t85 14.5l114 -3v-139h-30q-40 0 -68.5 -24.5t-28.5 -58.5q0 -53 46.5 -84t123.5 -31q58 0 122 23.5t119 67t95 106.5t51 140h204v-1237h-201v953q-27 -39 -71.5 -75.5t-101 -63.5t-126 -43t-146.5 -16q-62 0 -120.5 17.5 t-102 51.5t-70 83.5t-26.5 113.5z" />
<glyph unicode="&#xe30;" horiz-adv-x="735" d="M109 154v282h201v-123h318v-159h-519zM109 800v283h201v-124h318v-159h-519z" />
<glyph unicode="&#xe31;" d="M-640 1392v284h201v-115h714v-169h-915z" />
<glyph unicode="&#xe32;" horiz-adv-x="720" d="M47 1051v186h136q117 0 199 -38.5t133 -106t74.5 -157t23.5 -192.5v-743h-202v708q0 74 -13.5 137t-45.5 109t-84 71.5t-129 25.5h-92z" />
<glyph unicode="&#xe33;" horiz-adv-x="720" d="M-365 1549q0 56 41.5 99t116.5 43q74 0 114 -43t40 -99t-40 -99t-114 -43q-75 0 -116.5 43t-41.5 99zM47 1051v186h136q117 0 199 -38.5t133 -106t74.5 -157t23.5 -192.5v-743h-202v708q0 74 -13.5 137t-45.5 109t-84 71.5t-129 25.5h-92z" />
<glyph unicode="&#xe34;" d="M-1104 1392v169h995v-36q0 -63 -34.5 -98t-98.5 -35h-862z" />
<glyph unicode="&#xe35;" d="M-1104 1392v169h794v156h201v-325h-995z" />
<glyph unicode="&#xe36;" d="M-1104 1392v169h711q3 64 50 107t136 43q44 0 78 -13t56.5 -35.5t34 -52t11.5 -61.5q0 -30 -12 -58t-35 -50t-57 -35.5t-76 -13.5h-897z" />
<glyph unicode="&#xe37;" d="M-1104 1392v169h502v156h200v-156h92v156h201v-325h-995z" />
<glyph unicode="&#xe38;" d="M-461 -92h352v-403h-201v226h-151v177z" />
<glyph unicode="&#xe39;" d="M-746 -92h267v-156q0 -46 23 -60t60 -14q38 0 62 14t24 60v156h201v-156q0 -62 -16.5 -103.5t-51 -66t-89 -35.5t-130.5 -11q-81 0 -136 11t-87.5 36.5t-47 68.5t-14.5 109h-65v147z" />
<glyph unicode="&#xe3a;" d="M-356 -230q0 59 41.5 98.5t104.5 39.5q64 0 104.5 -39.5t40.5 -98.5q0 -55 -40.5 -95t-104.5 -40q-63 0 -104.5 40t-41.5 95z" />
<glyph unicode="&#xe3f;" horiz-adv-x="1274" d="M174 0v1457h386v225h121v-231q89 -9 162.5 -33t126 -68t81.5 -109t29 -152q0 -148 -81.5 -230.5t-219.5 -115.5v-5q74 -6 136 -32t106.5 -71t69.5 -106.5t25 -138.5q0 -103 -34 -172.5t-93 -115t-138 -68.5t-170 -31v-225h-121v222h-386zM384 171h154h22v493h-44h-132 v-493zM384 835h114h62v452h-176v-452zM681 180q45 7 85 23t69 43t45.5 66.5t16.5 95.5q0 59 -16.5 101t-46 71t-69 46t-84.5 26v-472zM681 847q41 8 75.5 23.5t59.5 41.5t38.5 65t13.5 94q0 51 -15 87t-41.5 61t-60.5 39.5t-70 21.5v-433z" />
<glyph unicode="&#xe40;" horiz-adv-x="540" d="M171 0v1237h200v-1237h-200z" />
<glyph unicode="&#xe41;" horiz-adv-x="896" d="M171 0v1237h200v-1237h-200zM525 0v1237h201v-1237h-201z" />
<glyph unicode="&#xe42;" horiz-adv-x="602" d="M86 1646q0 95 66.5 145t175.5 50q51 0 88 -5.5t70 -10.5t71 -10.5t92 -5.5q47 0 85.5 4t65.5 11v-166q-21 -8 -54 -12.5t-73 -4.5q-72 0 -141.5 11t-124 17.5t-87.5 1.5t-33 -39q0 -22 18 -40.5t39 -41.5t39.5 -57t18.5 -86v-1407h-201v1364q0 51 -18 82t-39.5 58 t-39.5 58t-18 84z" />
<glyph unicode="&#xe43;" horiz-adv-x="602" d="M-148 1620v44q0 63 22.5 111t63.5 79.5t97 47.5t122 16h88q77 0 132.5 -17t92 -46t54.5 -67.5t20 -81.5q1 -50 -9 -83t-25.5 -55.5t-34.5 -39t-35 -35.5t-27 -43.5t-11 -60.5v-1389h-201v1413q0 58 24 89.5t53.5 55.5t53.5 49t24 69q0 53 -37 75t-112 22h-9 q-77 0 -112.5 -37t-35.5 -95v-21h-198z" />
<glyph unicode="&#xe44;" horiz-adv-x="602" d="M-198 1661v166q29 -7 66.5 -11t84.5 -4t84 4.5t71.5 10t70 10t81.5 4.5q118 0 187 -47.5t69 -147.5q0 -53 -18 -84.5t-39 -59t-39 -57.5t-18 -81v-1364h-201v1407q0 46 18 75.5t39 51t39.5 41.5t18.5 45q0 35 -33.5 43.5t-88 4.5t-123.5 -13t-142 -9q-39 0 -72.5 3.5 t-54.5 11.5z" />
<glyph unicode="&#xe45;" horiz-adv-x="813" d="M47 1051v186h204q117 0 202.5 -38.5t141.5 -106t83 -157t27 -192.5v-1114h-201v1079q0 74 -19.5 137t-58 109t-96.5 71.5t-135 25.5h-148z" />
<glyph unicode="&#xe46;" horiz-adv-x="1165" d="M77 924q0 62 14.5 118.5t48.5 99.5t89 69t136 26h90l173 -166l183 166h246v-1608h-201v1442l-240 -230l-211 213q-23 1 -45 -5t-39 -21.5t-28.5 -43t-11.5 -66.5q0 -44 16 -70.5t40 -38.5t52 -13.5t50 4.5v-166q-75 -12 -140.5 -5t-115 40t-78 95t-28.5 160z" />
<glyph unicode="&#xe47;" d="M-1021 1392v151q0 56 19 104.5t60 84.5t104 56.5t154 20.5h516v-142h-519q-74 0 -105 -28t-31 -66v-36h145l159 92l157 -92h194v-145h-219l-132 89l-139 -89h-363z" />
<glyph unicode="&#xe48;" d="M-310 1794v309h201v-309h-201z" />
<glyph unicode="&#xe49;" d="M-541 1974v138h130q44 0 72 -10.5t44.5 -27t22.5 -39t6 -46.5v-44h393v-151h-588v133q0 16 -9 31.5t-37 15.5h-34z" />
<glyph unicode="&#xe4a;" d="M-599 1794v136q0 98 58 140t148 42h41l107 -70l100 70h39q43 0 80.5 -9t65.5 -28.5t44 -51t16 -78.5v-18h154v-133h-337v133q0 13 -7 21.5t-14 12.5q-9 7 -20 10l-121 -97l-136 97q-12 -2 -21 -8q-19 -11 -19 -33v-136h-178z" />
<glyph unicode="&#xe4b;" d="M-442 1927v136h142v136h182v-136h145v-136h-145v-133h-182v133h-142z" />
<glyph unicode="&#xe4c;" d="M-402 1685v83q0 107 62 153.5t160 46.5h180v-153h-136q-35 0 -56 -16.5t-21 -51.5v-62h-189z" />
<glyph unicode="&#xe4d;" d="M-365 1549q0 56 41.5 99t116.5 43q74 0 114 -43t40 -99t-40 -99t-114 -43q-75 0 -116.5 43t-41.5 99z" />
<glyph unicode="&#xe4e;" d="M-676 1711q0 63 36 113.5t99 81.5q53 31 124 36q-65 32 -65 112q0 31 14.5 63.5t40 62t61 53.5t76.5 40q82 34 177.5 41.5t195.5 7.5h38v-151q-39 3 -69.5 4.5t-51.5 1.5q-57 0 -117 -7.5t-103 -23.5q-44 -15 -69 -39.5t-25 -55.5q0 -44 44 -53t139 -9v-142 q-31 3 -54 4.5t-43 1.5q-60 0 -111.5 -9t-90 -25t-60.5 -39.5t-22 -50.5q0 -44 74 -44q47 0 88.5 14.5t88.5 35.5l74 -124q-53 -29 -121 -50t-136 -21q-12 3 -14 3h-10h-17q-86 9 -138.5 54.5t-52.5 113.5z" />
<glyph unicode="&#xe4f;" horiz-adv-x="1484" d="M109 619q0 131 49.5 246t136 201t202 136t246.5 50t246 -50t201 -136t136 -201t50 -246t-50 -246.5t-136 -201.5t-201 -136t-246 -50t-246.5 50t-202 136t-136 201.5t-49.5 246.5zM201 619q0 -112 43 -210.5t116 -172t172 -116.5t211 -43q110 0 209 43t172 116.5 t116.5 172t43.5 210.5q0 110 -43.5 209t-116.5 172.5t-172 116.5t-209 43q-112 0 -211 -43t-172 -116.5t-116 -172.5t-43 -209zM356 619q0 80 30.5 150.5t82.5 123t123 83t151 30.5t150 -30.5t123 -83t83 -123t30 -150.5t-30 -151t-83 -123t-123 -82t-150 -30t-151 30 t-123 82t-82.5 123t-30.5 151z" />
<glyph unicode="&#xe50;" horiz-adv-x="1153" d="M77 467q0 101 31 187.5t93 151t155.5 101.5t218.5 37q126 0 220 -37t157.5 -101.5t95.5 -151t32 -187.5q0 -103 -32 -190.5t-95.5 -152.5t-157.5 -102t-220 -37q-125 0 -218.5 37t-155.5 102t-93 152.5t-31 190.5zM287 467q0 -68 19.5 -125.5t57.5 -98.5t90.5 -63.5 t120.5 -22.5t121.5 22.5t92 63.5t59 98.5t20.5 125.5t-20.5 124.5t-59 95.5t-92 61t-121.5 22t-120.5 -22t-90.5 -61t-57.5 -95.5t-19.5 -124.5z" />
<glyph unicode="&#xe51;" horiz-adv-x="1153" d="M77 575q0 76 34.5 143t97.5 117t150.5 79.5t194.5 29.5q126 0 224 -35t165 -97.5t101 -151t33 -196.5q-3 -118 -48.5 -208.5t-125 -153.5t-188.5 -97t-239 -35q-112 -3 -194.5 9t-121.5 21l-33 168q57 -17 142.5 -30t175.5 -8q105 6 183.5 34.5t131 73t79 103t26.5 126.5 q0 77 -23.5 132t-64 91t-98 53.5t-125.5 17.5q-60 0 -109 -14.5t-84.5 -40t-54.5 -59.5t-19 -72q0 -53 24 -82t61 -43t80 -15.5t80 4.5v-170l-46 -6q-80 -11 -154 0.5t-130.5 49t-90.5 102t-34 160.5z" />
<glyph unicode="&#xe52;" horiz-adv-x="1451" d="M0 1160l174 92q56 -27 94.5 -84t38.5 -138v-862h841v590l-195 -180l-204 168q-23 0 -44 -5.5t-37.5 -22t-26.5 -46.5t-10 -82q0 -43 13 -69t35 -38.5t50 -15.5t59 0v-154l-18 -3q-175 -31 -255 34t-85 225q-3 92 16 156.5t54 105t85.5 59.5t113.5 19h95l153 -127l148 127 h247v-909h-1233v968q0 63 -30.5 113t-78.5 79z" />
<glyph unicode="&#xe53;" horiz-adv-x="1177" d="M77 448q0 121 25 212.5t68 153.5t102.5 93t129.5 31h68l179 -141l180 130h236v-927h-206v749l-210 -168l-204 171q-18 1 -44.5 -11t-49.5 -45t-40 -92.5t-17 -152.5q0 -95 17.5 -150.5t48.5 -84.5t74 -35t94 -1v-183l-73 -3q-109 -5 -181.5 27.5t-116.5 94t-62 146.5 t-18 186z" />
<glyph unicode="&#xe54;" horiz-adv-x="1221" d="M77 427q0 109 34 195t98 145.5t156.5 91.5t209.5 32h363v346h204v-511h-475q-199 0 -289.5 -74t-90.5 -213q0 -146 104 -214.5t320 -56.5q-57 13 -92 55.5t-35 95.5q0 65 48.5 112.5t128.5 47.5q39 0 71.5 -13t56 -35t36.5 -51.5t13 -60.5q0 -53 -34 -95.5t-90 -55.5h299 v-168h-559q-99 0 -187 24t-152 75.5t-101 133t-37 194.5z" />
<glyph unicode="&#xe55;" horiz-adv-x="1236" d="M77 427q0 201 110 320.5t308 140.5q-42 21 -64.5 58t-22.5 84q0 36 15.5 67t43.5 53.5t66.5 36t82.5 13.5t81.5 -13.5t65.5 -36t44 -53.5t16 -67q0 -92 -80 -139h225v346h204v-511h-505q-199 0 -289.5 -74t-90.5 -213q0 -146 104 -214.5t320 -56.5q-57 13 -92 55.5 t-35 95.5q0 65 48.5 112.5t128.5 47.5q39 0 71.5 -13t56 -35t36.5 -51.5t13 -60.5q0 -53 -34 -95.5t-90 -55.5h299v-168h-559q-99 0 -187 24t-152 75.5t-101 133t-37 194.5z" />
<glyph unicode="&#xe56;" horiz-adv-x="1150" d="M0 1160l174 92q68 -26 100.5 -78t32.5 -123v-284q15 27 46 53t72.5 46t92 33t107.5 13q122 0 208.5 -34t140.5 -95t78.5 -145.5t24.5 -186.5q0 -129 -35.5 -218.5t-100.5 -144.5t-158 -79t-208 -24q-99 0 -182 19.5t-143.5 61t-96 106.5t-38.5 156h210q4 -52 27.5 -86 t59 -54t80 -28.5t92.5 -8.5q61 0 112 17.5t89 53.5t59 92.5t21 136.5q0 145 -69.5 223t-211.5 78q-52 0 -94.5 -14.5t-73.5 -35.5t-50 -46t-26 -47h-231v377q0 68 -30.5 109.5t-78.5 64.5z" />
<glyph unicode="&#xe57;" horiz-adv-x="1561" d="M77 448q0 121 25 212.5t68 153.5t102.5 93t129.5 31h68l179 -141l180 130h236v-759q60 0 98.5 15.5t60.5 45t30 70.5t8 91v628q0 47 14 84.5t35 66t45 50t45 33.5l151 -92q-37 -31 -67.5 -80.5t-30.5 -114.5v-649q0 -168 -96 -245t-260 -74l-239 3v749l-210 -168 l-204 171q-18 1 -44.5 -11t-49.5 -45t-40 -92.5t-17 -152.5q0 -95 17.5 -150.5t48.5 -84.5t74 -35t94 -1v-183l-73 -3q-109 -5 -181.5 27.5t-116.5 94t-62 146.5t-18 186z" />
<glyph unicode="&#xe58;" horiz-adv-x="1171" d="M77 448q0 99 22.5 180.5t73 139.5t134 90.5t203.5 32.5h349v346h206v-511h-466q-84 0 -143.5 -15.5t-96.5 -49t-54.5 -86.5t-17.5 -127q0 -77 11.5 -126t28.5 -78.5t37.5 -43t37.5 -17.5l220 210l237 -225v228h206v-396h-262l-184 192l-183 -192l-96 -3 q-55 -3 -102.5 26.5t-83.5 87t-56.5 142.5t-20.5 195z" />
<glyph unicode="&#xe59;" horiz-adv-x="1330" d="M77 442q0 228 84.5 338.5t277.5 110.5h231l97 -230l53 139q17 43 49 67t90 24h89v183q0 69 38.5 114.5t85.5 63.5l164 -104q-39 -26 -60 -59.5t-21 -88.5v-277h-219q-35 0 -51.5 -20t-28.5 -60l-44 -142q-6 -18 -10 -47.5t-5.5 -60.5t0 -59.5t9.5 -46.5l112 -287h-204 l-279 723q-59 3 -105 -5t-78 -37.5t-48.5 -86t-16.5 -149.5q0 -87 15 -141.5t45.5 -84t75.5 -37.5t105 -2v-183l-73 -3q-115 -5 -188.5 27t-115.5 91.5t-58 144t-16 185.5z" />
<glyph unicode="&#xe5a;" horiz-adv-x="1478" d="M77 1021q0 50 16.5 90.5t46 69.5t69.5 44.5t85 14.5l114 -3v-139h-30q-40 0 -68.5 -24.5t-28.5 -58.5q0 -53 46.5 -84t123.5 -31q58 0 122 23.5t119 67t95 106.5t51 140h204v-1237h-201v953q-27 -39 -71.5 -75.5t-101 -63.5t-126 -43t-146.5 -16q-62 0 -120.5 17.5 t-102 51.5t-70 83.5t-26.5 113.5zM1166 0v1237h201v-1237h-201z" />
<glyph unicode="&#xe5b;" horiz-adv-x="2103" d="M92 625q0 225 106 367q53 77 121.5 113.5t150.5 36.5q65 0 123.5 -28t102.5 -78.5t69.5 -120t25.5 -151.5q0 -66 -15 -119t-43 -91t-65.5 -58t-83.5 -20q-36 0 -70 15.5t-59.5 43t-40.5 64.5t-15 79q0 41 15 77t40.5 65t58 45.5t68.5 16.5l32 -3q-53 121 -140 121 q-49 0 -90.5 -29t-71.5 -80t-48 -122t-18 -156t20 -151t56.5 -112t87 -71t110.5 -25q71 0 134 37t112.5 105t86 165t54.5 218q12 76 29.5 100t56.5 24q15 0 34 -18t38.5 -48.5t39 -71t38.5 -87.5l18 110q22 88 62 88q28 0 68 -49t71 -131q24 124 67 124q35 0 70.5 -44.5 t71.5 -117.5q20 58 37.5 88t47.5 30q21 0 46 -28t46 -67q24 48 71 42l168 -21q27 0 53.5 -15t26.5 -32q0 -18 -26.5 -35.5t-56.5 -20.5l-156 -15q-9 -30 -28.5 -58t-45.5 -28q-23 0 -47 34q-7 7 -16 25t-26 45q-17 -55 -41 -96.5t-50 -41.5q-21 0 -46.5 43t-60.5 115 q-12 -44 -22.5 -76.5t-18.5 -50.5q-27 -62 -58 -62q-29 0 -71 95q-12 26 -22 53.5t-22 52.5q-9 -42 -24 -84.5t-33.5 -76.5t-36.5 -55.5t-33 -21.5q-51 0 -68 52q-8 29 -10 48t-5 36q-5 31 -27 93q-26 -104 -69 -193t-99 -148q-151 -169 -343 -169q-93 0 -168.5 37 t-130 103.5t-84 160.5t-29.5 209zM507 678q0 -39 22 -65t52 -26q74 0 74 91q0 92 -74 92q-28 0 -51 -26.5t-23 -65.5z" />
<glyph unicode="&#x2000;" horiz-adv-x="1207" />
<glyph unicode="&#x2001;" horiz-adv-x="2414" />
<glyph unicode="&#x2002;" horiz-adv-x="1207" />
<glyph unicode="&#x2003;" horiz-adv-x="2414" />
<glyph unicode="&#x2004;" horiz-adv-x="804" />
<glyph unicode="&#x2005;" horiz-adv-x="603" />
<glyph unicode="&#x2006;" horiz-adv-x="402" />
<glyph unicode="&#x2007;" horiz-adv-x="402" />
<glyph unicode="&#x2008;" horiz-adv-x="301" />
<glyph unicode="&#x2009;" horiz-adv-x="482" />
<glyph unicode="&#x200a;" horiz-adv-x="134" />
<glyph unicode="&#x200c;" />
<glyph unicode="&#x200d;" />
<glyph unicode="&#x2010;" horiz-adv-x="696" d="M80 482v158h536v-158h-536z" />
<glyph unicode="&#x2011;" horiz-adv-x="696" d="M80 482v158h536v-158h-536z" />
<glyph unicode="&#x2012;" horiz-adv-x="696" d="M80 482v158h536v-158h-536z" />
<glyph unicode="&#x2013;" horiz-adv-x="1251" d="M100 436v183h1054v-183h-1054z" />
<glyph unicode="&#x2014;" horiz-adv-x="2505" d="M100 436v183h2305v-183h-2305z" />
<glyph unicode="&#x2018;" horiz-adv-x="566" d="M171 930v227q0 60 12.5 114.5t40.5 96t70.5 65.5t101.5 24v-103q-35 0 -57.5 -17t-36.5 -46t-19 -63.5t-5 -70.5h121v-227h-228z" />
<glyph unicode="&#x2019;" horiz-adv-x="566" d="M171 930v103q34 0 57.5 18t37 46t19.5 63.5t6 70.5h-120v226h225v-226q0 -61 -13 -115t-41 -96t-70 -66t-101 -24z" />
<glyph unicode="&#x201c;" horiz-adv-x="868" d="M136 930v227q0 60 13 114.5t40 96t69 65.5t101 24v-103q-34 0 -57 -17t-36.5 -46t-18.5 -63.5t-5 -70.5h120v-227h-226zM507 930v227q0 60 13 114.5t41 96t70 65.5t101 24v-103q-34 0 -57 -17t-35.5 -46t-18 -63.5t-5.5 -70.5h119v-227h-228z" />
<glyph unicode="&#x201d;" horiz-adv-x="868" d="M136 930v103q35 0 57.5 18t36 46t19 63.5t5.5 70.5h-118v226h226v-226q0 -61 -12.5 -115t-40.5 -96t-71 -66t-102 -24zM507 1231v226h228v-226q0 -61 -12.5 -115t-40.5 -96t-70.5 -66t-101.5 -24v103q35 0 57.5 18t36.5 46t19 63.5t5 70.5h-121z" />
<glyph unicode="&#x2022;" horiz-adv-x="1144" d="M109 619q0 97 36 181.5t99 147t147.5 99t180.5 36.5q97 0 181.5 -36.5t147 -99t99 -147t36.5 -181.5t-36.5 -181.5t-99 -148t-147 -99.5t-181.5 -36q-96 0 -180.5 36t-147.5 99.5t-99 148t-36 181.5z" />
<glyph unicode="&#x2026;" horiz-adv-x="2086" d="M233 0v236h234v-236h-234zM927 0v236h233v-236h-233zM1620 0v236h236v-236h-236z" />
<glyph unicode="&#x202f;" horiz-adv-x="482" />
<glyph unicode="&#x205f;" horiz-adv-x="603" />
<glyph unicode="&#xe000;" horiz-adv-x="1064" d="M0 0v1065h1065v-1065h-1065z" />
<glyph unicode="&#xf700;" horiz-adv-x="1141" d="M24 912q14 71 54 134.5t105 111.5t152.5 76t199.5 28q120 0 217 -37q30 22 43 51.5t16 53.5h243q-9 -53 -50 -105.5t-119 -79.5q93 -85 138 -211t42 -285q-5 -154 -36.5 -274.5t-90 -203.5t-143 -127t-193.5 -44h-369l-62 498q-8 56 -25.5 80t-65.5 24h-33v162h183 q52 0 83 -31t39 -78l62 -487h143q49 0 102.5 24t98.5 80.5t74.5 148.5t29.5 228q0 118 -27 202t-74.5 138t-111 80t-136.5 26q-104 0 -175 -50.5t-96 -132.5h-218z" />
<glyph unicode="&#xf701;" d="M-1305 1392v169h872v-36q0 -63 -35 -98t-98 -35h-739z" />
<glyph unicode="&#xf702;" d="M-1305 1392v169h671v156h201v-325h-872z" />
<glyph unicode="&#xf703;" d="M-1305 1392v169h588q3 64 49.5 107t135.5 43q44 0 78 -13t57 -35.5t34 -52t11 -61.5q0 -30 -12 -58t-34.5 -50t-56.5 -35.5t-77 -13.5h-773z" />
<glyph unicode="&#xf704;" d="M-1305 1392v169h378v156h201v-156h92v156h201v-325h-872z" />
<glyph unicode="&#xf705;" d="M-693 1392v370h201v-370h-201z" />
<glyph unicode="&#xf706;" d="M-850 1593v154h145q48 0 80 -11.5t50 -30t24.5 -44.5t6.5 -53v-47h529v-169h-746v130q0 32 -17.5 51.5t-50.5 19.5h-21z" />
<glyph unicode="&#xf707;" d="M-1125 1392v151q0 109 64 156.5t167 47.5h44l121 -80l110 80h44q47 0 88.5 -10t72 -31.5t48 -57t17.5 -87.5v-15h334v-154h-536v148q0 17 -7.5 26t-15.5 15q-10 6 -22 9l-133 -109l-153 109q-12 -1 -21 -8q-8 -4 -14.5 -14t-6.5 -25v-151h-201z" />
<glyph unicode="&#xf708;" d="M-927 1537v154h160v150h201v-150h164v-154h-164v-145h-201v145h-160z" />
<glyph unicode="&#xf709;" d="M-823 1392v92q0 59 19 100.5t52 68t79 38.5t101 12h198v-169h-151q-40 0 -64 -19t-24 -55v-68h-210z" />
<glyph unicode="&#xf70a;" d="M-310 1392v370h201v-370h-201z" />
<glyph unicode="&#xf70b;" d="M-628 1593v154h146q49 0 80 -11.5t49 -30t24.5 -44.5t6.5 -53v-47h467v-169h-683v130q0 32 -18 51.5t-50 19.5h-22z" />
<glyph unicode="&#xf70c;" d="M-983 1392v151q0 109 64 156.5t167 47.5h44l121 -80l111 80h43q46 0 87.5 -10t72.5 -31.5t48.5 -57t17.5 -87.5v-21h172v-148h-373v148q0 17 -7.5 26t-16.5 15q-10 6 -23 9l-132 -109l-151 109q-14 -1 -23 -8q-8 -4 -14.5 -14t-6.5 -25v-151h-201z" />
<glyph unicode="&#xf70d;" d="M-634 1537v154h161v150h201v-150h163v-154h-163v-145h-201v145h-161z" />
<glyph unicode="&#xf70e;" d="M-448 1392v92q0 59 18.5 100.5t52 68t79.5 38.5t100 12h198v-169h-151q-39 0 -63.5 -19t-24.5 -55v-68h-209z" />
<glyph unicode="&#xf70f;" horiz-adv-x="1976" d="M86 906q18 72 61 136.5t109.5 113.5t156.5 77.5t200 28.5q131 0 228 -32.5t160.5 -88t93.5 -129t30 -156.5v-445q0 -73 21 -123.5t57.5 -83t85.5 -47.5t106 -15q58 0 107.5 15t86 47.5t57.5 83t21 123.5v826h201v-853q0 -80 -26.5 -153.5t-84 -130t-146.5 -90.5t-216 -34 q-125 0 -215 34t-146.5 90.5t-83 130t-26.5 153.5v442q0 68 -26.5 118t-69.5 84t-99 50.5t-116 16.5q-53 0 -101 -13t-88 -35.5t-69 -53.5t-42 -69l151 -98q-28 -11 -55 -29.5t-49 -42t-36 -50t-14 -52.5v-478h185v-174h-386v634q0 27 11 55t30 52.5t44.5 43t53.5 29.5z" />
<glyph unicode="&#xf710;" d="M-924 1392v284h201v-115h770v-169h-971z" />
<glyph unicode="&#xf711;" d="M-690 1549q0 56 41.5 99t116.5 43q74 0 114 -43t40 -99t-40 -99t-114 -43q-75 0 -116.5 43t-41.5 99z" />
<glyph unicode="&#xf712;" d="M-1255 1392v151q0 56 19 104.5t59 84.5t104 56.5t155 20.5h516v-142h-519q-76 0 -106 -28t-30 -66v-36h145l157 92l159 -92h194v-145h-220l-133 89l-139 -89h-361z" />
<glyph unicode="&#xf713;" d="M-634 1794v309h201v-309h-201z" />
<glyph unicode="&#xf714;" d="M-865 1974v138h130q43 0 71 -10.5t45 -27t23 -39t6 -46.5v-44h392v-151h-587v133q0 16 -9 31.5t-38 15.5h-33z" />
<glyph unicode="&#xf715;" d="M-924 1794v136q0 98 58 140t149 42h39l109 -70l99 70h40q42 0 79.5 -9t65 -28.5t43.5 -51t16 -78.5v-18h155v-133h-337v133q0 13 -6.5 21.5t-14.5 12.5q-9 7 -19 10l-121 -97l-136 97q-12 -2 -21 -8q-20 -11 -20 -33v-136h-178z" />
<glyph unicode="&#xf716;" d="M-767 1927v136h142v136h183v-136h145v-136h-145v-133h-183v133h-142z" />
<glyph unicode="&#xf717;" d="M-726 1685v83q0 107 62 153.5t160 46.5h179v-153h-136q-34 0 -55.5 -16.5t-21.5 -51.5v-62h-188z" />
<glyph unicode="&#xf718;" d="M-461 -479h352v-403h-201v227h-151v176z" />
<glyph unicode="&#xf719;" d="M-746 -479h267v-155q0 -47 23 -60.5t60 -13.5q38 0 62 13.5t24 60.5v155h201v-155q0 -62 -16.5 -103.5t-51 -66.5t-89 -35.5t-130.5 -10.5q-81 0 -136 10.5t-87.5 36t-47 68.5t-14.5 110h-65v146z" />
<glyph unicode="&#xf71a;" d="M-399 -616q0 59 41 98t104 39q64 0 104.5 -39t40.5 -98q0 -56 -40.5 -96t-104.5 -40q-63 0 -104 40t-41 96z" />
<glyph unicode="&#xf71d;" />
<glyph unicode="&#xf880;" />
<glyph horiz-adv-x="720" d="M-690 1549q0 56 41.5 99t116.5 43q74 0 114 -43t40 -99t-40 -99t-114 -43q-75 0 -116.5 43t-41.5 99zM47 1051v186h136q117 0 199 -38.5t133 -106t74.5 -157t23.5 -192.5v-743h-202v708q0 74 -13.5 137t-45.5 109t-84 71.5t-129 25.5h-92z" />
<glyph d="M-897 1711q0 63 36.5 113.5t99.5 81.5q53 31 124 36q-65 32 -65 112q0 31 14.5 63.5t40 62t61 53.5t76.5 40q81 34 177 41.5t196 7.5h37v-151q-39 3 -69 4.5t-51 1.5q-58 0 -117.5 -7.5t-103.5 -23.5q-44 -15 -69 -39.5t-25 -55.5q0 -44 44 -53t139 -9v-142 q-30 3 -53.5 4.5t-42.5 1.5q-61 0 -112.5 -9t-90 -25t-60 -39.5t-21.5 -50.5q0 -44 74 -44q46 0 88 14.5t88 35.5l74 -124q-53 -29 -120.5 -50t-135.5 -21q-12 3 -14 3h-11h-16q-86 9 -139 54.5t-53 113.5z" />
<glyph />
<glyph />
<glyph d="M-1305 1392v169h378v156h201v-156h92v156h201v-325h-872zM-782 1794v309h201v-309h-201z" />
<glyph d="M-1314 1392v169h995v-36q0 -63 -34.5 -98t-97.5 -35h-863z" />
<glyph d="M-1314 1392v169h795v156h200v-325h-995z" />
</font>
</defs>
</svg>
