<?xml version="1.0" standalone="no"?>
<!DOCTYPE svg PUBLIC "-//W3C//DTD SVG 1.1//EN" "http://www.w3.org/Graphics/SVG/1.1/DTD/svg11.dtd" >
<svg xmlns="http://www.w3.org/2000/svg">
<metadata></metadata>
<defs>
<font id="true_boldregular" horiz-adv-x="0" >
<font-face units-per-em="2048" ascent="1638" descent="-410" />
<missing-glyph horiz-adv-x="914" />
<glyph unicode="&#xe37;&#xe48;" d="M-1118 1374v198h434v137h201v-137h93v137h299v-335h-1027zM-539 1785v274h298v-274h-298z" />
<glyph unicode="&#xd;" horiz-adv-x="914" />
<glyph unicode=" "  horiz-adv-x="914" />
<glyph unicode="&#x09;" horiz-adv-x="914" />
<glyph unicode="&#xa0;" horiz-adv-x="914" />
<glyph unicode="!" horiz-adv-x="803" d="M244 1438h318l-46 -1016h-236zM256 0v288h291v-288h-291z" />
<glyph unicode="&#x22;" horiz-adv-x="992" d="M180 921v517h254v-517h-254zM559 921v517h250v-517h-250z" />
<glyph unicode="#" horiz-adv-x="1144" d="M67 422v164h207l37 265h-180v165h204l58 422h184l-58 -422h210l58 422h180l-58 -422h168v-165h-192l-34 -265h165v-164h-189l-58 -422h-183l61 422h-210l-62 -422h-183l61 422h-186zM460 586h209l36 265h-210z" />
<glyph unicode="$" horiz-adv-x="1144" d="M119 1022q0 107 34.5 184.5t91 130.5t131.5 82t157 40v152h99v-149q89 0 173.5 -12t161.5 -40l-27 -236q-140 61 -293 61q-9 0 -15 -3v-381q67 -27 141.5 -57t135.5 -78t101 -122t40 -186q0 -101 -32 -175.5t-88.5 -126t-133 -81t-164.5 -40.5v-171h-99v165q-7 -3 -13 -3 h-10q-59 0 -103.5 4t-85.5 10.5t-83.5 17t-94.5 22.5l25 261q76 -39 159 -64.5t168 -25.5h18t20 3v388q-70 26 -143 56.5t-133 78.5t-99 118.5t-39 176.5zM422 1037q0 -51 30.5 -84.5t80.5 -58.5v320q-47 -21 -79 -63t-32 -114zM632 232q50 21 84.5 60t34.5 95 q0 57 -34.5 94.5t-84.5 65.5v-315z" />
<glyph unicode="%" horiz-adv-x="2059" d="M219 1083q0 181 89.5 280t256.5 99q165 0 253 -99t88 -280q0 -180 -88 -279t-253 -99q-167 0 -256.5 99t-89.5 279zM434 1083q0 -33 5 -70t19 -69t39.5 -53t67.5 -21q41 0 66.5 21t39 53t18 69t4.5 70t-4.5 70.5t-18 69.5t-39 52.5t-66.5 20.5q-42 0 -67.5 -20.5 t-39.5 -52.5t-19 -69.5t-5 -70.5zM504 -46l891 1529h168l-888 -1529h-171zM1156 355q0 178 89.5 278t256.5 100q165 0 253 -100t88 -278q0 -181 -88 -280t-253 -99q-167 0 -256.5 99t-89.5 280zM1371 355q0 -35 5 -72t19.5 -69t39.5 -53t67 -21q40 0 65.5 21t39.5 53 t18.5 69t4.5 72q0 32 -4.5 69.5t-18.5 69.5t-39.5 53t-65.5 21q-42 0 -67 -21t-39.5 -53t-19.5 -69.5t-5 -69.5z" />
<glyph unicode="&#x26;" horiz-adv-x="1485" d="M122 393q0 66 15.5 122.5t51.5 105t94 91t145 78.5q-44 38 -80.5 74t-63 75.5t-42.5 86.5t-16 109q0 81 39.5 142t102.5 102t140.5 62t153.5 21t150.5 -18t133 -57t95 -100.5t36.5 -148.5q0 -74 -21.5 -130.5t-58.5 -101.5t-88 -80.5t-109 -68.5l262 -291 q53 63 70.5 146.5t20.5 168.5h251q-5 -139 -50.5 -263.5t-133.5 -229.5l260 -288h-354l-98 128q-76 -79 -180 -115.5t-210 -36.5q-108 0 -201.5 27t-163.5 80t-110.5 131t-40.5 179zM399 402q0 -47 19.5 -86.5t53 -68t77.5 -43.5t95 -15q71 0 136.5 19.5t113.5 65.5 l-320 358q-36 -18 -67.5 -40.5t-55 -50.5t-38 -62.5t-14.5 -76.5zM504 1107q0 -30 13 -57.5t33.5 -53t43.5 -48.5t44 -45q27 13 60.5 36.5t61.5 51t47.5 58t19.5 61.5q0 39 -13.5 67t-35 47t-50 28t-59.5 9t-61 -9t-53 -28t-37 -48t-14 -69z" />
<glyph unicode="'" horiz-adv-x="573" d="M162 921v517h249v-517h-249z" />
<glyph unicode="(" horiz-adv-x="686" d="M79 635q0 143 23 265t65.5 233t103.5 214t137 209h264q-67 -106 -122 -209t-94.5 -214t-61.5 -233t-22 -265q0 -133 22 -254.5t61.5 -235.5t94.5 -221t122 -212h-264q-76 105 -137 212t-103.5 221t-65.5 235.5t-23 254.5z" />
<glyph unicode=")" horiz-adv-x="686" d="M15 -288q65 105 120.5 212t95 221t61.5 235.5t22 254.5q0 143 -22 265t-61.5 233t-95 214t-120.5 209h259q78 -106 139 -209t103.5 -214t65.5 -233t23 -265q0 -133 -23 -254.5t-65.5 -235.5t-103.5 -221t-139 -212h-259z" />
<glyph unicode="*" horiz-adv-x="1144" d="M149 1043l67 215l276 -120l-35 300h236l-37 -297l275 117l67 -215l-287 -64l198 -222l-189 -134l-146 256l-158 -256l-187 134l202 222z" />
<glyph unicode="+" horiz-adv-x="1235" d="M94 416v213h416v414h216v-414h415v-213h-415v-416h-216v416h-416z" />
<glyph unicode="," horiz-adv-x="573" d="M49 -226l131 514h300l-189 -514h-242z" />
<glyph unicode="-" horiz-adv-x="686" d="M73 440v229h541v-229h-541z" />
<glyph unicode="." horiz-adv-x="573" d="M143 0v288h288v-288h-288z" />
<glyph unicode="/" horiz-adv-x="803" d="M43 -24l504 1486h213l-504 -1486h-213z" />
<glyph unicode="0" horiz-adv-x="1144" d="M73 714q0 135 23 268.5t79.5 240t153 173t242.5 66.5q105 0 183.5 -32t134.5 -87.5t91.5 -129t56.5 -156.5t29 -171.5t8 -171.5q0 -84 -8 -170.5t-29.5 -168t-58 -154.5t-92.5 -127.5t-133.5 -86t-181.5 -31.5q-111 0 -190.5 34.5t-135.5 91t-89.5 131.5t-52 157 t-24.5 165.5t-6 158.5zM361 714q0 -45 0.5 -101.5t6.5 -114.5t18 -114t36 -99.5t59.5 -69.5t89.5 -26q53 0 90.5 26t60.5 69.5t35.5 99.5t18.5 114t7 114.5t1 101.5q0 46 -1 104t-7 117.5t-18.5 115.5t-36.5 100t-60.5 71t-89.5 27q-52 0 -88.5 -27t-60 -71t-36 -100 t-18.5 -115.5t-6.5 -117.5t-0.5 -104z" />
<glyph unicode="1" horiz-adv-x="1144" d="M162 1098l421 340h256v-1438h-289v1110l-242 -198z" />
<glyph unicode="2" horiz-adv-x="1144" d="M85 0v241q33 32 92.5 85.5t128.5 120.5t141 144t130 155t94.5 154t36.5 143q0 49 -20 85.5t-54 59.5t-76 35t-86 12q-91 0 -175.5 -34t-156.5 -81l-24 237q99 51 207.5 78t220.5 27q103 0 186.5 -26t142 -78.5t90.5 -130.5t32 -184q0 -115 -52 -223.5t-131.5 -211.5 t-176 -199t-184.5 -183h589v-226h-955z" />
<glyph unicode="3" horiz-adv-x="1144" d="M91 21l19 247q73 -30 153 -48.5t165 -18.5q46 0 99 11.5t99 36t76.5 63t30.5 93.5q0 63 -24 106t-66.5 70t-100.5 39t-126 12h-142v225h131q145 0 233 47.5t88 141.5q0 54 -20.5 90.5t-54.5 58.5t-79 31t-92 9q-88 0 -168.5 -19.5t-156.5 -56.5l-18 233q88 32 189.5 51 t212.5 19q67 0 149 -14.5t154.5 -54.5t121.5 -112.5t49 -188.5q0 -73 -21.5 -128t-58 -95.5t-85 -68.5t-103.5 -49v-6q69 -9 120 -39t85.5 -75t51.5 -103.5t17 -125.5q0 -128 -52 -210.5t-133.5 -130.5t-178 -66.5t-186.5 -18.5q-94 0 -196 11.5t-182 33.5z" />
<glyph unicode="4" horiz-adv-x="1144" d="M34 299v231l537 908h357v-925h182v-214h-182v-299h-275v299h-619zM294 513h359v625h-3z" />
<glyph unicode="5" horiz-adv-x="1144" d="M149 15l6 259q54 -22 127 -47.5t166 -25.5q56 0 111.5 14t99 44t71 78.5t27.5 116.5q0 70 -28.5 118t-74.5 77.5t-105.5 42.5t-120.5 13q-67 0 -131.5 -10t-128.5 -30l15 773h827v-215h-556l-6 -308q26 4 58 10t74 6q76 0 157 -20.5t149.5 -73.5t112.5 -143.5t44 -230.5 q0 -101 -35 -190.5t-105 -155t-174.5 -103.5t-242.5 -38q-85 0 -175 11.5t-162 27.5z" />
<glyph unicode="6" horiz-adv-x="1144" d="M91 644q0 98 11 196.5t38 189t71.5 169.5t110 137.5t154.5 92t205 33.5q80 0 154.5 -12t150.5 -40l-40 -231q-55 25 -116 40.5t-134 15.5q-94 0 -158 -39.5t-103.5 -102.5t-58 -143t-21.5 -160l3 -3q52 74 119.5 109t160.5 35q101 0 179 -31t131 -88.5t80.5 -138.5 t27.5 -181q0 -117 -29 -212t-87.5 -163t-149 -104.5t-210.5 -36.5q-151 0 -245.5 57.5t-149 151.5t-74.5 214t-20 245zM378 446q0 -53 11.5 -99t36 -81t62.5 -56t92 -21q50 0 86 22.5t59 59t33.5 82t10.5 93.5q0 52 -11.5 101t-35 87t-61 60.5t-87.5 22.5q-52 0 -89.5 -22.5 t-61.5 -60t-34.5 -86.5t-10.5 -102z" />
<glyph unicode="7" horiz-adv-x="1144" d="M104 1211v227h924v-239l-509 -1199h-315l535 1211h-635z" />
<glyph unicode="8" horiz-adv-x="1144" d="M73 390q0 121 65.5 206.5t196.5 148.5v6q-107 48 -172 134t-65 198q0 96 34.5 167.5t96.5 118.5t145 70t182 23q95 0 182 -20.5t153.5 -62t106 -107t39.5 -154.5q0 -50 -15.5 -101t-45.5 -97.5t-74.5 -85t-104.5 -62.5v-3q143 -67 210 -158.5t67 -217.5 q0 -108 -37 -186.5t-103.5 -130t-156.5 -76t-197 -24.5q-106 0 -197.5 24t-161 74t-109 128t-39.5 188zM361 393q0 -44 17.5 -81.5t47.5 -65t70 -42.5t84 -15q41 0 78.5 13.5t65.5 38t44 60.5t16 80q0 53 -21 93t-55.5 70t-76.5 51.5t-87 36.5q-79 -39 -131 -93.5 t-52 -145.5zM372 1074q0 -46 22 -79.5t54.5 -59.5t73 -44.5t75.5 -33.5q32 12 61 33.5t52 49.5t36.5 61t13.5 67q0 81 -47 131t-130 50q-39 0 -76.5 -11.5t-67 -33t-48.5 -54t-19 -76.5z" />
<glyph unicode="9" horiz-adv-x="1144" d="M91 946q0 116 29 211.5t88 163.5t149 104.5t211 36.5q149 0 244 -57t149.5 -150.5t74.5 -214.5t20 -247q0 -97 -11 -196t-38 -189.5t-71.5 -169.5t-110 -137t-154 -91.5t-205.5 -33.5q-80 0 -154 12t-150 39l36 232q57 -25 118.5 -41.5t134.5 -16.5q93 0 157 39.5 t103.5 103.5t59 143t22.5 160l-3 3q-52 -76 -120 -109.5t-160 -33.5q-102 0 -180 31t-131 88.5t-80.5 138.5t-27.5 181zM378 992q0 -53 11.5 -102.5t35 -87.5t60.5 -60t89 -22t89 22t60 59.5t34.5 87.5t11.5 103q0 51 -11.5 98t-36 82t-62.5 56t-91 21q-51 0 -86.5 -22.5 t-59 -58.5t-34 -82t-10.5 -94z" />
<glyph unicode=":" horiz-adv-x="573" d="M143 0v288h288v-288h-288zM143 772v290h288v-290h-288z" />
<glyph unicode=";" horiz-adv-x="573" d="M49 -226l131 514h300l-189 -514h-242zM143 772v290h288v-290h-288z" />
<glyph unicode="&#x3c;" horiz-adv-x="1235" d="M94 434v177l1047 448v-211l-769 -326l769 -330v-207z" />
<glyph unicode="=" horiz-adv-x="1235" d="M94 189v213h1047v-213h-1047zM94 638v213h1047v-213h-1047z" />
<glyph unicode="&#x3e;" horiz-adv-x="1235" d="M94 -15v207l770 330l-770 326v211l1047 -448v-177z" />
<glyph unicode="?" horiz-adv-x="1028" d="M104 1395q99 29 201 48t205 19q89 0 173 -20.5t150.5 -65t106 -114.5t39.5 -170q0 -71 -27.5 -130t-68.5 -111t-88 -100.5t-85 -99.5t-62 -106.5t-16 -122.5h-254q0 73 13 130t34 103.5t47.5 83.5t54.5 70q29 31 57 59.5t49 58.5t34.5 62.5t13.5 72.5q0 51 -21 86 t-54.5 57.5t-76 33t-86.5 10.5q-84 0 -163 -25t-155 -59zM361 0v288h289v-288h-289z" />
<glyph unicode="@" horiz-adv-x="1647" d="M76 720q0 153 59.5 288.5t165.5 236t252.5 159t319.5 58.5q125 0 249.5 -35t224.5 -109t162.5 -188.5t62.5 -272.5q0 -106 -29 -189.5t-75.5 -147.5t-104.5 -108.5t-115 -73t-109.5 -42t-85.5 -13.5q-43 0 -76.5 27.5t-36.5 79.5h-3q-39 -43 -91 -75t-117 -32 q-64 0 -122.5 25.5t-102.5 71t-70 108t-26 138.5q0 101 33.5 191t91 157.5t135 106.5t165.5 39q76 0 137 -33.5t104 -97.5l24 97h171l-113 -500q-4 -17 -8 -37t-4 -33q0 -14 6 -22t24 -8q37 0 79 20.5t75.5 65.5t56 113.5t22.5 165.5q0 126 -49.5 207.5t-126 129t-172 66 t-186.5 18.5q-129 0 -236.5 -45t-184.5 -122t-119 -177t-42 -208q0 -121 40 -222.5t111 -175t168.5 -115.5t213.5 -42q61 0 124.5 5.5t125 19.5t119 39.5t106.5 67.5h175q-57 -85 -128.5 -145.5t-154 -100t-175 -57.5t-192.5 -18q-134 0 -267.5 46.5t-240.5 139.5 t-173.5 232t-66.5 326zM626 656q0 -73 39.5 -121.5t112.5 -48.5q49 0 90.5 23.5t73 61.5t48.5 86.5t17 96.5q0 73 -41.5 118.5t-111.5 45.5q-51 0 -92.5 -24t-72 -62t-47 -84t-16.5 -92z" />
<glyph unicode="A" horiz-adv-x="1485" d="M18 0l562 1438h323l565 -1438h-318l-125 329h-582l-126 -329h-299zM524 556h422l-207 594h-6z" />
<glyph unicode="B" horiz-adv-x="1257" d="M168 0v1438h501q46 0 98.5 -5.5t103.5 -20t99 -40t83.5 -67t57 -100t21.5 -137.5q0 -64 -20.5 -117.5t-58.5 -95t-91 -69.5t-117 -38v-3q74 -7 134.5 -35t103.5 -71t67 -100.5t24 -122.5q0 -90 -24.5 -156t-65.5 -112.5t-94 -75.5t-109.5 -44.5t-111.5 -21.5t-100 -6 h-501zM454 226h138q50 0 102 7.5t95.5 30t71 62t27.5 102.5q0 70 -26 112.5t-68 65.5t-95.5 30.5t-106.5 7.5h-138v-418zM454 857h120q44 0 92 6.5t88 25t65.5 53t25.5 89.5q0 63 -24.5 99.5t-65 54t-89.5 22t-98 4.5h-114v-354z" />
<glyph unicode="C" horiz-adv-x="1257" d="M98 693q0 185 54.5 328.5t156 241t247.5 148.5t329 51q72 0 159 -14.5t167 -43.5l-20 -245q-84 46 -159 61t-153 15q-112 0 -201 -39.5t-152 -109.5t-96.5 -165.5t-33.5 -206.5t33.5 -204t96.5 -162t153.5 -108t205.5 -39q42 0 87.5 4.5t88 12.5t79 19.5t62.5 24.5 l12 -241q-80 -18 -163 -31.5t-166 -13.5q-174 0 -318.5 44t-248 132.5t-162 223.5t-58.5 317z" />
<glyph unicode="D" horiz-adv-x="1485" d="M168 0v1438h394q165 0 315 -32t264.5 -113.5t182.5 -220t68 -352.5q0 -215 -68 -353.5t-182.5 -220.5t-264.5 -114t-315 -32h-394zM454 226h163q89 0 175 33t151.5 96.5t105.5 155t40 209.5q0 116 -40 207.5t-105.5 155t-151.5 96t-175 32.5h-163v-985z" />
<glyph unicode="E" horiz-adv-x="1144" d="M168 0v1438h848v-227h-562v-354h513v-225h-513v-406h565v-226h-851z" />
<glyph unicode="F" horiz-adv-x="1028" d="M168 0v1438h799v-227h-513v-354h486v-225h-486v-632h-286z" />
<glyph unicode="G" horiz-adv-x="1485" d="M98 693q0 185 54.5 328.5t156 241t247.5 148.5t329 51q127 0 229 -15t196 -43l-20 -245q-85 39 -184.5 57.5t-187.5 18.5q-125 0 -223 -39.5t-164 -109.5t-100.5 -165.5t-34.5 -206.5t33.5 -204t96.5 -162t153.5 -108t205.5 -39q60 0 106 6t83 17v373h-305v227h582v-775 q-114 -30 -232 -51.5t-234 -21.5q-174 0 -318.5 44t-248 132.5t-162 223.5t-58.5 317z" />
<glyph unicode="H" horiz-adv-x="1485" d="M168 0v1438h286v-581h577v581h291v-1438h-291v632h-577v-632h-286z" />
<glyph unicode="I" horiz-adv-x="573" d="M143 0v1438h288v-1438h-288z" />
<glyph unicode="J" horiz-adv-x="803" d="M46 3v247q30 -9 62 -16.5t75 -7.5q70 0 108 25.5t55.5 63.5t20.5 82t3 83v958h289v-1097q0 -56 -20.5 -120.5t-66 -118.5t-120.5 -90t-187 -36q-59 0 -109 5.5t-110 21.5z" />
<glyph unicode="K" horiz-adv-x="1373" d="M168 0v1438h286v-617l519 617h355l-589 -678l612 -760h-375l-516 669h-6v-669h-286z" />
<glyph unicode="L" horiz-adv-x="1028" d="M168 0v1438h286v-1212h559v-226h-845z" />
<glyph unicode="M" horiz-adv-x="1944" d="M168 0v1438h461l341 -1091h3l343 1091h463v-1438h-277v1188h-3l-389 -1188h-277l-387 1188l-3 -6v-1182h-275z" />
<glyph unicode="N" horiz-adv-x="1485" d="M152 0v1438h355l549 -1074h3v1074h275v-1438h-352l-548 1074h-6v-1074h-276z" />
<glyph unicode="O" horiz-adv-x="1601" d="M98 723q0 165 45.5 300.5t135 233t220.5 151.5t304 54q168 0 298.5 -54.5t220 -153t136.5 -234t47 -297.5q0 -164 -45.5 -300.5t-135 -236.5t-220.5 -155t-301 -55q-174 0 -306 54.5t-220.5 153t-133.5 236t-45 303.5zM396 723q0 -97 22 -191t70 -167.5t125.5 -118.5 t189.5 -45q109 0 185.5 45t125 118.5t70 167.5t21.5 191q0 95 -23 186.5t-72 164t-125 117t-182 44.5q-107 0 -184.5 -44.5t-126.5 -117t-72.5 -164t-23.5 -186.5z" />
<glyph unicode="P" horiz-adv-x="1144" d="M143 0v1438h364q117 0 225 -20t191 -69.5t132 -133t49 -211.5q0 -125 -42.5 -212t-117 -141.5t-175 -79t-216.5 -24.5h-122v-547h-288zM431 772h99q54 0 104 10.5t88 35t61 65.5t23 103q0 63 -21.5 106t-59.5 69.5t-88 38t-107 11.5h-99v-439z" />
<glyph unicode="Q" horiz-adv-x="1601" d="M98 723q0 165 45.5 300.5t135 233t220.5 151.5t304 54q168 0 298.5 -54.5t220 -153t136.5 -234t47 -297.5q0 -115 -23 -218.5t-68.5 -190t-113.5 -153.5t-156 -109l324 -323h-348l-250 250q-16 -3 -32.5 -3h-34.5q-174 0 -306 54.5t-220.5 153t-133.5 236t-45 303.5z M396 723q0 -97 22 -191t70 -167.5t125.5 -118.5t189.5 -45q109 0 185.5 45t125 118.5t70 167.5t21.5 191q0 95 -23 186.5t-72 164t-125 117t-182 44.5q-107 0 -184.5 -44.5t-126.5 -117t-72.5 -164t-23.5 -186.5z" />
<glyph unicode="R" horiz-adv-x="1257" d="M143 0v1438h308q78 0 159 -1t156.5 -10.5t142.5 -32.5t116 -65.5t78 -110.5t29 -168q0 -64 -20.5 -121t-60 -102t-95 -74.5t-123.5 -38.5v-3q30 -3 53.5 -17.5t42.5 -36t33 -46.5t24 -49l231 -562h-320l-174 448q-17 41 -32.5 69t-38 46t-53.5 26t-77 8h-91v-597h-288z M431 824h93q54 0 109 6t98.5 27t71 59.5t27.5 105.5q0 66 -27.5 104t-71 56.5t-98.5 23.5t-109 5h-93v-387z" />
<glyph unicode="S" horiz-adv-x="1144" d="M119 1022q0 121 43.5 205t114 136.5t160.5 75.5t186 23q92 0 178 -12t166 -40l-27 -236q-140 61 -293 61q-36 0 -76.5 -9t-73 -31t-54 -61t-21.5 -97q0 -48 26.5 -80t71.5 -56.5t100.5 -45.5t115.5 -45.5t115.5 -56.5t100.5 -78t71.5 -111t26.5 -156q0 -117 -43 -200 t-116.5 -134.5t-172 -74.5t-208.5 -23q-59 0 -103.5 4t-85.5 10.5t-83.5 17t-94.5 22.5l25 261q76 -39 159 -64.5t168 -25.5q41 0 86 10.5t83 33.5t62.5 58t24.5 84q0 51 -27 87t-71.5 62t-101 48t-116.5 47t-116.5 55.5t-101 76t-71.5 108.5t-27 151z" />
<glyph unicode="T" horiz-adv-x="1144" d="M15 1211v227h1114v-227h-412v-1211h-289v1211h-413z" />
<glyph unicode="U" horiz-adv-x="1485" d="M155 519v919h291v-830q0 -92 15.5 -166.5t50.5 -128.5t92.5 -83t140.5 -29q82 0 138.5 29t92.5 83t51.5 128.5t15.5 166.5v830h288v-919q0 -145 -40.5 -248t-115.5 -168.5t-184 -96t-246 -30.5q-139 0 -248.5 30.5t-185.5 96t-116 168.5t-40 248z" />
<glyph unicode="V" horiz-adv-x="1373" d="M21 1438h308l370 -1130h3l366 1130h283l-481 -1438h-354z" />
<glyph unicode="W" horiz-adv-x="2059" d="M21 1438h302l269 -1150h3l244 1150h393l254 -1150h3l269 1150h280l-375 -1438h-370l-259 1150h-6l-253 -1150h-373z" />
<glyph unicode="X" horiz-adv-x="1373" d="M21 0l471 748l-428 690h332l303 -513l305 513h312l-434 -690l469 -748h-338l-332 562l-337 -562h-323z" />
<glyph unicode="Y" horiz-adv-x="1373" d="M21 1438h340l338 -605l347 605h305l-515 -870v-568h-286v568z" />
<glyph unicode="Z" horiz-adv-x="1144" d="M73 0v235l678 976h-650v227h955v-236l-681 -976h696v-226h-998z" />
<glyph unicode="[" horiz-adv-x="686" d="M149 -288v1844h462v-202h-200v-1439h200v-203h-462z" />
<glyph unicode="\" horiz-adv-x="803" d="M40 1462h216l501 -1486h-213z" />
<glyph unicode="]" horiz-adv-x="686" d="M76 -85h198v1439h-198v202h460v-1844h-460v203z" />
<glyph unicode="^" horiz-adv-x="1235" d="M137 644l385 794h192l384 -794h-213l-268 576l-265 -576h-215z" />
<glyph unicode="_" horiz-adv-x="1028" d="M0 -155h1028v-101h-1028v101z" />
<glyph unicode="`" horiz-adv-x="573" d="M61 1505h280l172 -300h-172z" />
<glyph unicode="a" horiz-adv-x="1144" d="M73 291q0 119 51.5 190.5t131.5 110.5q79 37 174.5 50.5t180.5 13.5h152q0 128 -58 178.5t-181 50.5q-87 0 -171.5 -32t-154.5 -84l-9 235q81 39 180.5 60.5t189.5 21.5q120 0 207.5 -26t142.5 -80.5t81 -139.5t26 -202v-134v-145t3 -121q3 -62 6 -118.5t6 -119.5h-241 q-9 42 -10.5 87.5t-4.5 70.5h-3q-24 -45 -60.5 -78.5t-79.5 -56.5t-91.5 -35t-94.5 -12q-72 0 -139 21t-119 60.5t-83.5 98.5t-31.5 135zM338 308q0 -34 13.5 -59t37.5 -41t56 -23.5t68 -7.5q64 0 113 25.5t82 68.5q34 46 44.5 102t10.5 119h-119q-47 0 -100.5 -6t-99 -25.5 t-76 -56t-30.5 -96.5z" />
<glyph unicode="b" horiz-adv-x="1257" d="M143 0v1544h276v-619h3q56 76 132 118.5t185 42.5q122 0 207 -45.5t138 -121.5t77 -175.5t24 -210.5q0 -108 -24 -208.5t-77 -178t-138 -124t-207 -46.5q-43 0 -88 8.5t-87 26t-80 47.5t-68 73h-8v-131h-265zM422 533q0 -56 12 -116.5t39.5 -111t73.5 -83.5t115 -33 q68 0 113.5 33.5t72.5 84.5t38 111t11 115q0 54 -11 113.5t-37.5 109.5t-70 83.5t-109.5 33.5q-67 0 -114 -32t-77 -82t-43 -110t-13 -116z" />
<glyph unicode="c" horiz-adv-x="914" d="M73 533q0 117 33.5 217.5t99 175t161 117.5t219.5 43q84 0 147.5 -9t120.5 -27l-24 -217q-37 16 -80.5 28t-105.5 12q-64 0 -116.5 -24.5t-89 -69t-55.5 -107.5t-19 -139q0 -73 17 -136t52.5 -109.5t89.5 -72.5t127 -26q28 0 58.5 5.5t58 13t52 15.5t42.5 15l12 -229 q-61 -18 -126 -25.5t-150 -7.5q-129 0 -227.5 42t-164.5 116.5t-99 176.5t-33 222z" />
<glyph unicode="d" horiz-adv-x="1257" d="M73 533q0 111 24 210.5t76.5 175.5t137.5 121.5t208 45.5q102 0 178 -36.5t139 -112.5h3v607h279v-1544h-270v119h-3q-63 -79 -145.5 -111t-180.5 -32q-123 0 -208 46.5t-137.5 124t-76.5 178t-24 208.5zM364 533q0 -55 11 -115t37 -111t70.5 -84.5t112.5 -33.5t115 33 t75.5 83.5t41 111t12.5 116.5t-13.5 116t-43.5 110t-76.5 82t-113.5 32q-68 0 -112.5 -33.5t-70 -83.5t-35.5 -109.5t-10 -113.5z" />
<glyph unicode="e" horiz-adv-x="1144" d="M73 524q0 117 31.5 219t93 178t154 120.5t216.5 44.5q147 0 244 -48.5t155 -133t81 -202.5t23 -256h-733q11 -130 92 -199.5t211 -69.5q101 0 188 31.5t163 74.5v-222q-76 -43 -164.5 -64t-198.5 -21q-133 0 -235.5 36.5t-174 107.5t-109 173t-37.5 231zM338 635h471 q-3 50 -17 95.5t-41 80t-68.5 54.5t-99.5 20q-59 0 -102 -19.5t-73.5 -53t-47.5 -79.5t-22 -98z" />
<glyph unicode="f" horiz-adv-x="803" d="M40 857v205h204v146q0 81 22.5 147t65 114t105 74t143.5 26q52 0 107 -6t94 -16l-21 -228q-18 12 -47 23.5t-72 11.5q-35 0 -58 -13t-38 -35.5t-20.5 -51.5t-5.5 -61v-131h241v-205h-241v-857h-275v857h-204z" />
<glyph unicode="g" horiz-adv-x="1257" d="M73 533q0 96 25.5 195t79.5 178t139 129.5t205 50.5q105 0 187 -39.5t139 -131.5h3v147h267v-958q0 -108 -25.5 -209.5t-89 -180t-172 -125t-275.5 -46.5q-84 0 -176 15.5t-191 57.5l24 235q31 -18 70.5 -35t81.5 -30.5t83 -21.5t74 -8q114 0 178 38.5t94.5 99 t37.5 133.5t7 141h-3q-19 -34 -51.5 -64t-74.5 -53.5t-93.5 -37t-109.5 -13.5q-118 0 -200.5 43t-134 117t-75.5 171t-24 202zM364 533q0 -53 14 -109.5t43 -103.5t73 -77t103 -30q65 0 111 26t75 71.5t42.5 106t13.5 127.5t-13.5 126.5t-42 105t-71 71.5t-101.5 26 q-72 0 -118.5 -29.5t-76 -78t-41 -109t-11.5 -123.5z" />
<glyph unicode="h" horiz-adv-x="1257" d="M143 0v1544h276v-629h3q52 79 138.5 125t196.5 46q94 0 161.5 -31t112.5 -87t66 -133t21 -166v-669h-279v568q0 47 -3 101t-19.5 99.5t-52 75t-102.5 29.5q-76 0 -123 -36.5t-74 -90t-36.5 -115.5t-9.5 -112v-519h-276z" />
<glyph unicode="i" horiz-adv-x="573" d="M149 0v1062h276v-1062h-276zM149 1255v262h276v-262h-276z" />
<glyph unicode="j" horiz-adv-x="573" d="M-30 -440l9 196q55 3 88.5 12.5t51.5 31t24 60.5t6 100v1102h276v-1141q0 -57 -11.5 -123t-45.5 -122.5t-96.5 -94.5t-167.5 -38q-32 0 -70 4.5t-64 12.5zM149 1255v262h276v-262h-276z" />
<glyph unicode="k" horiz-adv-x="1144" d="M149 0v1544h276v-906h3l329 424h326l-396 -476l445 -586h-351l-353 516h-3v-516h-276z" />
<glyph unicode="l" horiz-adv-x="573" d="M149 0v1544h276v-1544h-276z" />
<glyph unicode="m" horiz-adv-x="1831" d="M137 0v1062h259v-150h3q33 49 72 82.5t80 53.5t82.5 29t80.5 9q113 0 190.5 -45.5t123.5 -143.5q24 48 60.5 83.5t80.5 58.5t92.5 35t95.5 12q99 0 164.5 -32t104 -88t55 -132t16.5 -165v-669h-279v632q0 37 -2 79.5t-17 78t-47 59.5t-91 24q-69 0 -109 -36.5t-62 -91 t-28 -117t-6 -112.5v-516h-278v632q0 37 -2.5 79.5t-17 78t-47 59.5t-91.5 24q-69 0 -109 -36.5t-61.5 -91t-27.5 -117t-6 -112.5v-516h-279z" />
<glyph unicode="n" horiz-adv-x="1257" d="M143 0v1062h259v-147h6q66 92 152.5 131.5t196.5 39.5q94 0 161.5 -31t112.5 -87t66 -133t21 -166v-669h-279v568q0 47 -3 101t-19.5 99.5t-52 75t-102.5 29.5q-76 0 -123 -36.5t-74 -90t-36.5 -115.5t-9.5 -112v-519h-276z" />
<glyph unicode="o" horiz-adv-x="1257" d="M73 522q0 131 42.5 236t117.5 178t176.5 111.5t219.5 38.5q117 0 218.5 -38.5t177 -111.5t118 -178t42.5 -236q0 -114 -37.5 -213.5t-109 -173.5t-175 -116.5t-234.5 -42.5q-133 0 -235.5 42.5t-174 116.5t-109 173.5t-37.5 213.5zM364 556q0 -66 11.5 -131.5 t41.5 -117.5t81.5 -85t130.5 -33t130.5 32t82 84.5t43 118t12.5 132.5q0 61 -16.5 118.5t-50 101.5t-84 70.5t-117.5 26.5t-117 -27.5t-83 -72t-49 -101.5t-16 -116z" />
<glyph unicode="p" horiz-adv-x="1257" d="M143 -434v1496h262v-153h3q48 79 128.5 128t202.5 49t207 -45.5t138 -121.5t77 -175.5t24 -210.5q0 -108 -24 -208.5t-77.5 -178t-139.5 -124t-211 -46.5q-43 0 -84 6t-79 22.5t-75.5 44.5t-72.5 73h-3v-556h-276zM422 533q0 -56 12 -116.5t39.5 -111t73.5 -83.5t115 -33 q68 0 113.5 33.5t72.5 84.5t38 111t11 115q0 54 -11 113.5t-37.5 109.5t-70 83.5t-109.5 33.5q-67 0 -114 -32t-77 -82t-43 -110t-13 -116z" />
<glyph unicode="q" horiz-adv-x="1257" d="M73 533q0 111 24 210.5t77.5 175.5t139 121.5t210.5 45.5q118 0 195.5 -47t128.5 -130h3v153h267v-1496h-279v556h-3q-36 -45 -72.5 -73t-74.5 -44.5t-79 -22.5t-86 -6q-125 0 -210.5 46.5t-139 124t-77.5 178t-24 208.5zM364 533q0 -55 11 -115t37 -111t70.5 -84.5 t112.5 -33.5t115 33t75.5 83.5t41 111t12.5 116.5t-13.5 116t-43.5 110t-76.5 82t-113.5 32q-68 0 -112.5 -33.5t-70 -83.5t-35.5 -109.5t-10 -113.5z" />
<glyph unicode="r" horiz-adv-x="803" d="M149 0v1062h244v-241h3q5 36 27.5 82t60.5 87t89 68.5t114 27.5q21 0 42.5 -0.5t42.5 -8.5v-277q-18 12 -51.5 16.5t-70.5 4.5q-57 0 -95 -21.5t-63.5 -56.5t-38.5 -80t-20 -92.5t-7.5 -94.5t-0.5 -86v-390h-276z" />
<glyph unicode="s" horiz-adv-x="914" d="M73 757q0 86 35 148t93 102t133.5 59.5t157.5 19.5q97 0 165.5 -12.5t132.5 -27.5l-18 -207q-31 10 -59.5 19t-57.5 15t-61 9t-70 3q-26 0 -55 -6t-52.5 -19.5t-38 -36.5t-14.5 -57q0 -31 20.5 -51.5t54 -35t76 -26.5t88 -28.5t88 -39t76 -57.5t54.5 -85.5t21 -122.5 q0 -92 -38 -157.5t-100 -107.5t-142.5 -60.5t-165.5 -18.5q-77 0 -156 12t-155 33l16 226q64 -32 132 -51t139 -19q27 0 58.5 6t60 21t47 40.5t18.5 63.5q0 53 -36 79.5t-89.5 43.5t-116 34.5t-116 50t-89.5 88.5t-36 153z" />
<glyph unicode="t" horiz-adv-x="803" d="M27 857v205h205v210l278 88v-298h244v-205h-244v-493q0 -35 5 -66t19 -55t39.5 -39t64.5 -15q37 0 70.5 7t54.5 23l9 -219q-43 -12 -92.5 -18t-111.5 -6q-163 0 -249.5 93t-86.5 251v537h-205z" />
<glyph unicode="u" horiz-adv-x="1257" d="M143 390v672h276v-567q0 -49 3 -103t20 -99.5t53.5 -74.5t101.5 -29q75 0 122 36t74 89.5t36.5 115.5t9.5 114v518h279v-1062h-264v143h-3q-64 -77 -152 -122t-195 -45q-96 0 -163.5 31.5t-111.5 86.5t-65 131t-21 165z" />
<glyph unicode="v" horiz-adv-x="1144" d="M24 1062h296l266 -774h3l256 774h275l-391 -1062h-310z" />
<glyph unicode="w" horiz-adv-x="1831" d="M21 1062h293l236 -788h6l213 788h320l233 -788h3l219 788h265l-326 -1062h-327l-228 809h-7l-225 -809h-315z" />
<glyph unicode="x" horiz-adv-x="1144" d="M18 0l366 556l-329 506h326l208 -348l204 348h293l-317 -506l357 -556h-329l-235 396l-242 -396h-302z" />
<glyph unicode="y" horiz-adv-x="1144" d="M21 1062h305l257 -774h3l256 774h281l-397 -1053q-33 -88 -66 -172t-80 -149.5t-117.5 -105t-179.5 -39.5q-48 0 -97.5 8t-97.5 21l19 202q27 -9 59 -13.5t84 -4.5q84 0 131 52t47 137z" />
<glyph unicode="z" horiz-adv-x="1028" d="M73 0v226l538 619h-513v217h839v-229l-529 -620h547v-213h-882z" />
<glyph unicode="{" horiz-adv-x="686" d="M37 547v176q29 0 58.5 9.5t53.5 32t39.5 59t15.5 91.5v363q0 72 27 125t71 86.5t98 50t110 16.5h155v-164h-91q-35 0 -55 -10.5t-31 -30t-15 -47t-4 -61.5v-358q0 -71 -23.5 -118t-58.5 -75.5t-75.5 -40.5t-73.5 -13v-6q33 -3 73.5 -13t75.5 -37.5t58.5 -78t23.5 -133.5 v-343q0 -36 4 -63.5t15 -46t31 -29t55 -10.5h91v-166h-155q-59 0 -114 17.5t-97.5 51.5t-68.5 86.5t-26 123.5v347q0 60 -15.5 100t-39.5 64t-53.5 34.5t-58.5 10.5z" />
<glyph unicode="|" horiz-adv-x="457" d="M122 -516v2060h213v-2060h-213z" />
<glyph unicode="}" horiz-adv-x="686" d="M21 -122h92q35 0 55 10.5t31 29t14 46t3 63.5v343q0 83 24 133.5t58 78t74.5 37.5t73.5 13v6q-33 1 -73.5 13t-74.5 40.5t-58 75.5t-24 118v358q0 34 -3 61.5t-14 47t-31 30t-55 10.5h-92v164h153q60 0 115 -16.5t97.5 -50t68 -86.5t25.5 -125v-363q0 -55 15.5 -91.5 t40 -59t55 -32t59.5 -9.5v-176q-29 0 -59.5 -10.5t-55 -34.5t-40 -64t-15.5 -100v-347q0 -71 -25.5 -124t-68 -87.5t-97.5 -51t-115 -16.5h-153v166z" />
<glyph unicode="~" horiz-adv-x="1235" d="M143 519q16 32 38.5 64t53 57.5t69.5 42t86 16.5q81 0 137.5 -21t104.5 -46q55 -29 107 -52.5t109 -23.5q27 0 50.5 12.5t44.5 34t39.5 48.5t36.5 54l73 -183q-18 -32 -42.5 -64.5t-53.5 -58t-64 -42t-75 -16.5q-73 0 -129 23t-111 52q-51 27 -102.5 48.5t-121.5 21.5 q-35 0 -62 -13.5t-48.5 -34.5t-37.5 -47t-29 -53z" />
<glyph unicode="&#xa4;" horiz-adv-x="1251" d="M12 244l220 216q-92 124 -92 288q0 170 92 280l-220 224l113 105l216 -216q118 88 288 88q82 0 157 -23.5t123 -64.5l223 216l106 -105l-216 -224q88 -118 88 -280q0 -170 -88 -288l216 -216l-106 -113l-223 221q-22 -20 -53.5 -35.5t-70.5 -30.5q-79 -27 -156 -27 q-164 0 -288 93l-216 -221zM294 748q0 -140 93 -244q97 -102 242 -102q137 0 235 102q94 93 94 244q0 69 -24.5 130t-68 107t-104.5 73.5t-132 27.5q-143 0 -239 -100q-96 -108 -96 -238z" />
<glyph unicode="&#xa9;" horiz-adv-x="1647" d="M79 720q0 153 59 288.5t160 236t236.5 159t289.5 58.5q153 0 289 -58.5t237 -159t160 -236t59 -288.5q0 -155 -59 -290t-160 -236.5t-237 -159.5t-289 -58q-154 0 -289.5 58t-236.5 159.5t-160 236.5t-59 290zM297 720q0 -130 40 -236.5t111 -182.5t167.5 -118.5 t208.5 -42.5t208 42.5t166.5 118.5t111.5 182.5t41 236.5q0 128 -41 234.5t-111.5 182.5t-166.5 117.5t-208 41.5t-208.5 -41.5t-167.5 -117.5t-111 -182.5t-40 -234.5zM434 726q0 94 28 173.5t81.5 138.5t130.5 91.5t174 32.5q68 0 129.5 -19.5t109 -59t78.5 -96.5t43 -133 h-165q-16 74 -70 109t-125 35q-103 0 -158 -75t-55 -197q0 -57 15.5 -107t43 -87t68 -59t89.5 -22q79 0 131 37.5t61 108.5h171q-12 -75 -45.5 -132.5t-81.5 -97t-108.5 -59.5t-127.5 -20q-96 0 -172.5 33.5t-131 93t-84 139t-29.5 172.5z" />
<glyph unicode="&#xab;" horiz-adv-x="1144" d="M101 556l243 420h261l-227 -420l227 -425h-261zM562 556l241 420h259l-226 -420l226 -425h-259z" />
<glyph unicode="&#xac;" horiz-adv-x="1235" d="M121 443v134h992v-400h-122v266h-870z" />
<glyph unicode="&#xad;" horiz-adv-x="1235" d="M94 416v213h1047v-213h-1047z" />
<glyph unicode="&#xae;" horiz-adv-x="1647" d="M79 720q0 153 59 288.5t160 236t236.5 159t289.5 58.5q153 0 289 -58.5t237 -159t160 -236t59 -288.5q0 -155 -59 -290t-160 -236.5t-237 -159.5t-289 -58q-154 0 -289.5 58t-236.5 159.5t-160 236.5t-59 290zM297 720q0 -130 40 -236.5t111 -182.5t167.5 -118.5 t208.5 -42.5t208 42.5t166.5 118.5t111.5 182.5t41 236.5q0 128 -41 234.5t-111.5 182.5t-166.5 117.5t-208 41.5t-208.5 -41.5t-167.5 -117.5t-111 -182.5t-40 -234.5zM524 308v827h312q79 0 140 -12.5t103.5 -41.5t64 -76t21.5 -117q0 -112 -61 -162t-158 -57l219 -361 h-179l-199 351h-85v-351h-178zM702 797h143q33 0 59 3t45 14t29.5 32t10.5 57q0 33 -15.5 51.5t-39.5 28t-52 12.5t-55 3h-125v-201z" />
<glyph unicode="&#xb0;" horiz-adv-x="806" d="M98 1062q0 60 23.5 115t63.5 96t94.5 65.5t116.5 24.5q64 0 120 -23.5t97 -64t65 -95.5t24 -118q0 -62 -24 -117t-65 -96t-97 -65t-120 -24q-61 0 -114.5 23t-94.5 64t-65 96t-24 119zM180 1062q0 -44 17.5 -84.5t46.5 -70t68.5 -47.5t83.5 -18q91 0 157 64q67 68 67 156 q0 45 -18 84.5t-48.5 68.5t-70.5 46t-87 17q-46 0 -85.5 -16t-68.5 -45t-45.5 -68.5t-16.5 -86.5z" />
<glyph unicode="&#xb6;" horiz-adv-x="1083" d="M0 1278q0 228 140 342q134 98 370 98h579v-61h-152v-2021h-92v2021h-216v-2021h-82v1200q-250 0 -392 92q-155 111 -155 350z" />
<glyph unicode="&#xb7;" horiz-adv-x="503" d="M143 669q0 45 30.5 75.5t79.5 30.5q46 0 77 -32t31 -74q0 -46 -32 -78t-76 -32q-49 0 -79.5 30.5t-30.5 79.5z" />
<glyph unicode="&#xbb;" horiz-adv-x="1144" d="M82 131l226 425l-226 420h259l245 -420l-245 -425h-259zM544 131l225 425l-225 420h259l240 -420l-240 -425h-259z" />
<glyph unicode="&#xd7;" horiz-adv-x="1235" d="M137 186l332 336l-332 332l146 150l334 -335l335 335l146 -150l-335 -332l335 -336l-146 -146l-335 335l-334 -335z" />
<glyph unicode="&#xf7;" horiz-adv-x="1235" d="M94 416v213h1047v-213h-1047zM460 110q0 72 42.5 115t114.5 43q73 0 115.5 -43t42.5 -115q0 -70 -42.5 -114.5t-115.5 -44.5q-72 0 -114.5 44.5t-42.5 114.5zM460 931q0 69 42.5 113.5t114.5 44.5q73 0 115.5 -44.5t42.5 -113.5q0 -70 -42.5 -114.5t-115.5 -44.5 q-72 0 -114.5 44.5t-42.5 114.5z" />
<glyph unicode="&#xe00;" horiz-adv-x="305" />
<glyph unicode="&#xe01;" horiz-adv-x="1238" d="M91 0v836q0 82 30.5 155.5t94 130.5t163 90.5t238.5 33.5q140 0 240 -33.5t164.5 -90.5t95 -130.5t30.5 -155.5v-836h-299v809q0 55 -18 96t-48.5 66.5t-73 38t-91.5 12.5q-48 0 -89.5 -12.5t-72 -38t-48 -66.5t-17.5 -96v-809h-299z" />
<glyph unicode="&#xe02;" horiz-adv-x="1171" d="M91 355v335q0 48 12 78.5t30.5 50.5t40 33.5t40 25.5t30.5 26t12 36q0 46 -34 64t-97 18h-34v198h223q38 0 79.5 -9.5t77.5 -31t60.5 -56t27.5 -83.5q4 -60 -6.5 -99.5t-29.5 -67t-41.5 -47.5t-43.5 -40t-34.5 -45.5t-13.5 -62.5v-285q0 -55 14.5 -92t40.5 -60t61 -33 t77 -10q41 0 77.5 10t63.5 33t42 60t15 92v827h299v-865q0 -82 -31 -151.5t-93 -120t-155 -79t-218 -28.5q-124 0 -216.5 28.5t-153.5 79t-91.5 120t-30.5 151.5z" />
<glyph unicode="&#xe03;" horiz-adv-x="1171" d="M58 970v250h149l107 -97l94 97h169v-204q0 -64 -14.5 -103.5t-34.5 -65.5t-44.5 -43t-44.5 -36.5t-34.5 -45.5t-14.5 -69v-260q0 -55 14.5 -92t40.5 -60t61 -33t77 -10q41 0 77.5 10t63.5 33t42 60t15 92v827h299v-865q0 -82 -31 -151.5t-93 -120t-155 -79t-218 -28.5 q-124 0 -216.5 28.5t-153.5 79t-91.5 120t-30.5 151.5v329q0 42 12.5 69.5t32 46t42.5 33.5t42.5 32t32 41.5t12.5 63.5h-207z" />
<glyph unicode="&#xe04;" horiz-adv-x="1238" d="M91 0v836q0 82 30.5 155.5t94 130.5t163 90.5t238.5 33.5q140 0 240 -33.5t164.5 -90.5t95 -130.5t30.5 -155.5v-836h-299v827q0 55 -20 92.5t-52 60.5t-74 32.5t-85 9.5q-39 0 -79 -9.5t-73 -32.5t-54 -60.5t-21 -92.5v-125h257v-265h-257v-437h-299z" />
<glyph unicode="&#xe05;" horiz-adv-x="1238" d="M91 0v876q0 73 26 137t72 113.5t111 80.5t143 39l174 -128l180 128q78 -8 142.5 -39t111 -80.5t71.5 -113.5t25 -137v-876h-299v873q0 43 -19.5 73t-47.5 40l-164 -113l-160 113q-26 -10 -46.5 -40t-20.5 -73v-186h257v-259h-257v-428h-299z" />
<glyph unicode="&#xe06;" horiz-adv-x="1238" d="M58 970v250h149l107 -97l94 97h169v-204q0 -64 -14.5 -103.5t-34.5 -65.5t-44.5 -43t-44.5 -36.5t-34.5 -45.5t-14.5 -69v-170q0 -43 19 -93t53 -92t84 -69.5t113 -27.5q52 0 87.5 16.5t58 46.5t33 70.5t10.5 90.5v795h299v-888q0 -79 -27.5 -143.5t-76.5 -110t-119 -71 t-155 -25.5q-66 0 -121.5 13.5t-103.5 36.5t-86 53.5t-68 66.5v-152h-299v684q0 42 12.5 69.5t32 46t42.5 33.5t42.5 32t32 41.5t12.5 63.5h-207z" />
<glyph unicode="&#xe07;" horiz-adv-x="1205" d="M30 1220h311l157 -996h107q36 0 76 19t73 67t54.5 130.5t21.5 209.5q0 101 -23 167.5t-61 105t-88 54t-105 15.5v228h119q122 0 209 -45.5t142.5 -122t80.5 -179.5t25 -217q0 -146 -25 -266t-78 -207.5t-135 -135t-195 -47.5h-472z" />
<glyph unicode="&#xe08;" horiz-adv-x="1187" d="M27 870q9 64 44.5 131t101 121.5t164 89t231.5 34.5q146 0 251 -45.5t171 -127t96 -193t29 -242.5q-5 -146 -33.5 -264t-84 -200.5t-141.5 -128t-203 -45.5h-403l-64 457q-9 60 -26.5 90t-65.5 30h-36v192h253q60 0 98.5 -31.5t47.5 -93.5l59 -420h73q41 0 82 23t73 73 t51.5 128t19.5 190q0 186 -65 285t-188 99q-48 0 -85 -12.5t-65 -33.5t-46.5 -48.5t-27.5 -57.5h-311z" />
<glyph unicode="&#xe09;" horiz-adv-x="1205" d="M24 568v189h244q63 0 92.5 -31.5t29.5 -78.5v-222q0 -50 8.5 -90.5t28.5 -70.5t53 -46.5t82 -16.5q59 0 106 27t80 68t50 91t17 96v298q0 120 -68.5 180.5t-175.5 60.5q-45 0 -86 -12t-73 -34t-54.5 -53.5t-28.5 -68.5h-305q6 77 46 148.5t111 125.5t171.5 86t227.5 32 q131 0 231.5 -31.5t167.5 -87.5t101.5 -132.5t34.5 -167.5v-827h-300v152q-25 -31 -60 -61.5t-81.5 -54.5t-101.5 -39t-121 -15q-80 0 -147 25.5t-114 71t-73 110t-26 143.5v125q0 24 -1 44.5t-5.5 35t-14.5 23t-30 8.5h-16z" />
<glyph unicode="&#xe0a;" horiz-adv-x="1205" d="M91 0v1220h299v-996h120q59 0 114 11t97.5 40t68 77.5t25.5 122.5q0 136 -78 205t-213 77v198q56 2 108.5 17.5t93 47.5t63 82t17.5 118h309q5 -61 -9 -117.5t-47.5 -104t-85.5 -84t-119 -57.5v-3q50 -17 99.5 -52.5t87.5 -87.5t61.5 -121t23.5 -150q0 -124 -40 -209.5 t-109.5 -139.5t-162.5 -77.5t-197 -22.5z" />
<glyph unicode="&#xe0b;" horiz-adv-x="1214" d="M58 970v250h131l108 -97l93 97h154v-210q0 -52 -10 -84.5t-25.5 -55t-32.5 -38t-32.5 -33.5t-25.5 -42.5t-10 -63.5v-469h114q61 0 116 11.5t97.5 42t67 83t24.5 131.5q0 128 -50.5 192.5t-171.5 72.5v198q43 5 84 19.5t71.5 45t47 80t10.5 120.5h308q6 -61 -7 -119 t-44.5 -105.5t-79 -84t-110.5 -54.5v-3q52 -17 98.5 -53.5t80.5 -89t54 -120.5t20 -148q0 -124 -40 -209.5t-109.5 -139.5t-161 -77.5t-195.5 -22.5l-522 6v684q0 42 10 68.5t24 46t30.5 35t30.5 33.5t23.5 42t9.5 61h-180z" />
<glyph unicode="&#xe0c;" horiz-adv-x="1959" d="M82 903q9 60 44.5 121t100.5 110t161 80.5t229 31.5q144 0 245.5 -34.5t165 -92t91.5 -133.5t28 -159v-344q0 -43 16.5 -93t48.5 -92t79 -69.5t107 -27.5q49 0 81.5 16.5t53 46.5t28.5 70.5t8 90.5v795h298v-888q0 -79 -26 -143.5t-73 -110t-113.5 -71t-146.5 -25.5 q-66 0 -121 15t-99.5 39t-79.5 54.5t-61 61.5v-152h-299v827q0 49 -18 85.5t-49.5 61t-73.5 36.5t-90 12q-37 0 -73 -9.5t-67 -27.5t-54.5 -43.5t-35.5 -56.5l99 -76q-38 -19 -67 -54t-29 -83v-443h154v-229h-453v653q0 47 28.5 92.5t90.5 69.5z" />
<glyph unicode="&#xe0d;" horiz-adv-x="1959" d="M82 903q9 60 44.5 121t100.5 110t161 80.5t229 31.5q144 0 245.5 -34.5t165 -92t91.5 -133.5t28 -159v-408q0 -58 16 -97.5t43.5 -64.5t65.5 -36t82 -11q94 0 154.5 49t60.5 160v801h298v-1135q0 -97 -21 -179t-76 -141.5t-152 -94t-247 -34.5h-523v236h477 q120 0 182 47.5t62 117.5v61q-55 -47 -133.5 -75.5t-183.5 -28.5q-90 0 -164.5 20t-127.5 63.5t-82.5 111t-29.5 163.5v475q0 49 -18 85.5t-49.5 61t-73.5 36.5t-90 12q-37 0 -73 -9.5t-67 -27.5t-54.5 -43.5t-35.5 -56.5l99 -76q-38 -19 -67 -54t-29 -83v-443h154v-229 h-453v653q0 47 28.5 92.5t90.5 69.5z" />
<glyph unicode="&#xe0e;" horiz-adv-x="1272" d="M24 0v229h101v424q0 47 28.5 92.5t90.5 69.5l-128 88q9 60 44 121t100 110t162 80.5t228 31.5q144 0 245.5 -34.5t165.5 -92t92.5 -133.5t28.5 -159v-1284h-486l-143 96l-142 -96h-286v225h271l157 101l155 -101h174v1059q0 49 -18.5 85.5t-50 61t-74 36.5t-89.5 12 q-36 0 -72.5 -9.5t-67 -27.5t-54.5 -43.5t-34 -56.5l97 -76q-38 -19 -66 -54t-28 -83v-672h-401z" />
<glyph unicode="&#xe0f;" horiz-adv-x="1272" d="M24 0v229h101v424q0 47 28.5 92.5t90.5 69.5l-128 88q9 60 44 121t100 110t162 80.5t228 31.5q144 0 245.5 -34.5t165.5 -92t92.5 -133.5t28.5 -159v-1284h-382l-150 96l-158 -96h-367v320h300v-125l225 134l232 -137v1092q0 49 -18.5 85.5t-50 61t-74 36.5t-89.5 12 q-36 0 -72.5 -9.5t-67 -27.5t-54.5 -43.5t-34 -56.5l97 -76q-38 -19 -66 -54t-28 -83v-672h-401z" />
<glyph unicode="&#xe10;" horiz-adv-x="1205" d="M27 870q9 64 44.5 131t101 121.5t164 89t231.5 34.5q56 0 107 -7.5t97 -21.5q25 20 39 46t19 50h349q-5 -27 -17 -57t-36.5 -59.5t-62.5 -56.5t-93 -45q79 -80 113.5 -197t31.5 -260q-5 -146 -33.5 -264t-84 -200.5t-141.5 -128t-203 -45.5h-403l-64 457q-9 60 -26.5 90 t-65.5 30h-36v192h253q60 0 98.5 -31.5t47.5 -93.5l59 -420h73q41 0 82 23t73 73t51.5 128t19.5 190q0 186 -65 285t-188 99q-48 0 -85 -12.5t-65 -33.5t-46.5 -48.5t-27.5 -57.5h-311zM91 -232h273l158 101l147 -101h112v128h299v-353h-418l-140 96l-144 -96h-287v225z" />
<glyph unicode="&#xe11;" horiz-adv-x="1254" d="M61 970v250h125l108 -97l93 97h172v-204q0 -48 -11.5 -79t-27.5 -54t-36.5 -40.5t-36.5 -36.5t-27.5 -43.5t-11.5 -60.5v-88q0 -33 -3.5 -77.5t-6.5 -85.5q-6 -47 -11 -96h6q11 44 23 88q10 37 23.5 76.5t26.5 69.5l300 631h198q89 0 143.5 -53.5t54.5 -165.5v-1001h-298 v940l-433 -940h-321v693q0 39 10.5 64t26 44t33.5 33.5t33.5 32.5t26 42t10.5 61h-189z" />
<glyph unicode="&#xe12;" horiz-adv-x="2008" d="M58 597q0 147 41 262t106 197t147 128.5t164 53.5l192 -146l146 128h339v-737q0 -43 17.5 -93t50 -92t79.5 -69.5t107 -27.5q47 0 80 16.5t53 46.5t28.5 70.5t8.5 90.5v795h299v-888q0 -79 -26 -143.5t-73 -110t-113 -71t-148 -25.5q-66 0 -122 15t-100.5 39t-79.5 54.5 t-61 61.5v-152h-299v943l-186 -162l-210 168q-14 -7 -37 -31t-45.5 -66.5t-38.5 -106t-16 -148.5q0 -111 27.5 -181t72 -107.5t102.5 -47t121 0.5v-262q-165 -31 -283.5 7.5t-194.5 124.5t-112 208t-36 257z" />
<glyph unicode="&#xe13;" horiz-adv-x="1959" d="M82 903q9 60 44.5 121t100.5 110t161 80.5t229 31.5q144 0 245.5 -34.5t165 -92t91.5 -133.5t28 -159v-402q0 -50 8.5 -90.5t28.5 -70.5t52.5 -46.5t82.5 -16.5q59 0 105.5 27t78.5 68t49 91t17 96v737h298v-1220h-298v152q-25 -31 -60 -61.5t-80 -54.5t-100 -39 t-121 -15q-80 0 -147 25.5t-114 71t-73 110t-26 143.5v495q0 49 -18 85.5t-49.5 61t-73.5 36.5t-90 12q-37 0 -73 -9.5t-67 -27.5t-54.5 -43.5t-35.5 -56.5l99 -76q-38 -19 -67 -54t-29 -83v-443h154v-229h-453v653q0 47 28.5 92.5t90.5 69.5z" />
<glyph unicode="&#xe14;" horiz-adv-x="1254" d="M58 597q0 138 37.5 253.5t106.5 198.5t169.5 129.5t225.5 44.5l565 -3v-1220h-298v982l-180 4q-64 2 -123 -21t-103.5 -71t-70.5 -121.5t-26 -175.5q0 -111 27.5 -181t72 -107.5t102.5 -47t121 0.5v-262q-170 -31 -289 7.5t-194.5 124.5t-109 208t-33.5 257z" />
<glyph unicode="&#xe15;" horiz-adv-x="1284" d="M58 597q0 147 41 262t106 197t147 128.5t164 53.5l192 -146l146 128h339v-1220h-299v943l-186 -162l-210 168q-14 -7 -37 -31t-45.5 -66.5t-38.5 -106t-16 -148.5q0 -111 27.5 -181t72 -107.5t102.5 -47t121 0.5v-262q-165 -31 -283.5 7.5t-194.5 124.5t-112 208t-36 257 z" />
<glyph unicode="&#xe16;" horiz-adv-x="1238" d="M82 903q9 60 44.5 121t100.5 110t161 80.5t229 31.5q144 0 245.5 -34.5t165 -92t91.5 -133.5t28 -159v-827h-299v827q0 49 -18 85.5t-49.5 61t-73.5 36.5t-90 12q-37 0 -73 -9.5t-67 -27.5t-54.5 -43.5t-35.5 -56.5l99 -76q-38 -19 -67 -54t-29 -83v-443h154v-229h-453 v653q0 47 28.5 92.5t90.5 69.5z" />
<glyph unicode="&#xe17;" horiz-adv-x="1238" d="M91 0v1220h299v-155q30 36 68 66.5t86 53.5t103.5 36.5t121.5 13.5q85 0 155 -25t119 -70.5t76.5 -110.5t27.5 -144v-885h-299v793q0 49 -10.5 90.5t-33 70.5t-58 45.5t-87.5 16.5q-63 0 -113 -27.5t-84 -69t-53 -91t-19 -92.5v-736h-299z" />
<glyph unicode="&#xe18;" horiz-adv-x="1220" d="M70 867q0 81 36.5 149.5t105 120t167.5 80.5t226 29q128 0 225 -30t164 -83t103.5 -124.5t43.5 -154.5h-305q-5 40 -27 71.5t-56.5 53t-79 32.5t-93.5 11q-47 0 -85.5 -10.5t-66 -27.5t-43 -40t-15.5 -50q0 -30 32.5 -46.5t86 -26.5t121.5 -18.5t139.5 -21t139.5 -35 t121.5 -62t86 -98.5t32.5 -146v-440h-1038v519h299v-295h440v160q0 59 -33 92.5t-86.5 52.5t-121 28t-139.5 19.5t-139.5 25.5t-121 46t-86.5 83.5t-33 135.5z" />
<glyph unicode="&#xe19;" horiz-adv-x="1238" d="M91 335v885h128q79 0 125 -41t46 -133v-618q0 -99 43.5 -161.5t146.5 -62.5q62 0 112 27.5t85 69.5t53 92t18 93v734h299v-1220h-299v155q-30 -36 -68 -66.5t-85.5 -53.5t-103.5 -36.5t-122 -13.5q-85 0 -155 25.5t-119.5 71t-76.5 110t-27 143.5z" />
<glyph unicode="&#xe1a;" horiz-adv-x="1238" d="M91 384v836h128q79 0 125 -41t46 -133v-635q0 -53 17.5 -93.5t48 -66.5t72 -39.5t89.5 -13.5q51 0 93 13t73 38t48 65.5t17 96.5v809h299v-836q0 -80 -30.5 -154.5t-95 -130.5t-164.5 -89.5t-240 -33.5q-139 0 -238.5 33.5t-163 89.5t-94 130.5t-30.5 154.5z" />
<glyph unicode="&#xe1b;" horiz-adv-x="1238" d="M91 384v836h128q79 0 125 -41t46 -133v-635q0 -53 17.5 -93.5t48 -66.5t72 -39.5t89.5 -13.5q51 0 93 13t73 38t48 65.5t17 96.5v1115h299v-1142q0 -80 -30.5 -154.5t-95 -130.5t-164.5 -89.5t-240 -33.5q-139 0 -238.5 33.5t-163 89.5t-94 130.5t-30.5 154.5z" />
<glyph unicode="&#xe1c;" horiz-adv-x="1495" d="M21 1220h422v-207h-105l81 -573h6l213 780h226l216 -780h6l110 780h278l-187 -1220h-317l-216 830h-6l-218 -830h-320z" />
<glyph unicode="&#xe1d;" horiz-adv-x="1495" d="M21 1220h422v-207h-105l81 -573h6l213 780h226l216 -780h6l157 1086h277l-233 -1526h-317l-216 830h-6l-218 -830h-320z" />
<glyph unicode="&#xe1e;" horiz-adv-x="1495" d="M21 1220h287l111 -780h6l213 780h226l216 -780h6l107 780h281l-187 -1220h-317l-216 830h-6l-218 -830h-320z" />
<glyph unicode="&#xe1f;" horiz-adv-x="1495" d="M21 1220h287l111 -780h6l213 780h226l216 -780h6l152 1086h282l-233 -1526h-317l-216 830h-6l-218 -830h-320z" />
<glyph unicode="&#xe20;" horiz-adv-x="1272" d="M24 0v229h101v424q0 47 28.5 92.5t90.5 69.5l-128 88q9 60 44 121t100 110t162 80.5t228 31.5q144 0 245.5 -34.5t165.5 -92t92.5 -133.5t28.5 -159v-827h-300v827q0 49 -18.5 85.5t-50 61t-74 36.5t-89.5 12q-36 0 -72.5 -9.5t-67 -27.5t-54.5 -43.5t-34 -56.5l97 -76 q-38 -19 -66 -54t-28 -83v-672h-401z" />
<glyph unicode="&#xe21;" horiz-adv-x="1238" d="M91 0v1220h128q79 0 125 -41t46 -133v-560q0 -43 19 -93t53 -92t84 -69.5t113 -27.5q52 0 87.5 16.5t58 46.5t33 70.5t10.5 90.5v792h299v-885q0 -79 -26.5 -143.5t-76 -110t-119.5 -71t-156 -25.5q-66 0 -121.5 13.5t-103.5 36.5t-86 53.5t-68 66.5v-155h-299z" />
<glyph unicode="&#xe22;" horiz-adv-x="1238" d="M58 332q0 72 23 128t59 96.5t80 67t85 38.5v3q-35 7 -73 27t-69.5 53.5t-51.5 80t-20 105.5q0 63 24.5 116.5t70 93t112 62t150.5 20.5l196 -3v-225q-108 5 -176.5 -22.5t-68.5 -93.5q0 -39 22.5 -62.5t57.5 -36.5t78 -15t87 1v-210q-52 4 -100 -5t-86 -30.5t-60.5 -55 t-22.5 -78.5q0 -58 23.5 -91.5t61.5 -50t85.5 -20t95.5 -1.5l207 5v991h299v-1220l-649 -6q-115 -1 -197.5 22t-136.5 66t-80 106.5t-26 143.5z" />
<glyph unicode="&#xe23;" horiz-adv-x="1184" d="M55 393h306q0 -52 22 -89t58 -61t80.5 -34.5t89.5 -10.5q46 0 85.5 11.5t68 30t44 43.5t15.5 52q0 55 -32 86.5t-85 50t-120.5 30t-138 24t-138 32.5t-120.5 57.5t-85 97.5t-32 154q0 81 36.5 149.5t104.5 120t164 80.5t217 29q131 0 230.5 -31.5t166.5 -84.5 t100.5 -124.5t33.5 -151.5h-299q-3 36 -21.5 66.5t-50.5 53.5t-75.5 35.5t-93.5 12.5q-48 0 -87 -10.5t-67 -28t-44 -41.5t-16 -51q0 -39 32.5 -61t85 -35.5t120.5 -22.5t138 -24t138 -39t120.5 -66.5t84.5 -108.5t32 -164q0 -190 -133 -292t-407 -102q-255 0 -391.5 111 t-136.5 306z" />
<glyph unicode="&#xe24;" horiz-adv-x="1238" d="M82 903q9 60 44.5 121t100.5 110t161 80.5t229 31.5q144 0 245.5 -34.5t165 -92t91.5 -133.5t28 -159v-1194h-299v1194q0 49 -18 85.5t-49.5 61t-73.5 36.5t-90 12q-37 0 -73 -9.5t-67 -27.5t-54.5 -43.5t-35.5 -56.5l99 -76q-38 -19 -67 -54t-29 -83v-443h154v-229h-453 v653q0 47 28.5 92.5t90.5 69.5z" />
<glyph unicode="&#xe25;" horiz-adv-x="1226" d="M58 408q0 87 31.5 166.5t92.5 140.5t153.5 98.5t214.5 37.5q115 0 187 -24.5t99 -48.5v64q0 42 -18 74.5t-47.5 56.5t-71.5 36.5t-88 12.5q-97 0 -157.5 -44t-78.5 -108h-305q7 67 45 134t105.5 121t163.5 87.5t221 33.5q134 0 234 -29t166 -81.5t98 -124t32 -157.5v-854 h-299v498q-5 10 -22 27t-47.5 33.5t-73 27.5t-96.5 11q-53 0 -98 -14.5t-77 -40t-49.5 -60.5t-17.5 -77q0 -61 28 -100.5t71.5 -59t94 -19.5t95.5 18v-241q-149 -30 -259.5 -7t-182.5 82t-108 145.5t-36 184.5z" />
<glyph unicode="&#xe26;" horiz-adv-x="1272" d="M24 0v229h101v424q0 47 28.5 92.5t90.5 69.5l-128 88q9 60 44 121t100 110t162 80.5t228 31.5q144 0 245.5 -34.5t165.5 -92t92.5 -133.5t28.5 -159v-1194h-300v1194q0 49 -18.5 85.5t-50 61t-74 36.5t-89.5 12q-36 0 -72.5 -9.5t-67 -27.5t-54.5 -43.5t-34 -56.5l97 -76 q-38 -19 -66 -54t-28 -83v-672h-401z" />
<glyph unicode="&#xe27;" horiz-adv-x="1190" d="M58 399h312q2 -37 17 -69.5t41 -57.5t62 -39t81 -14q44 0 86.5 14t76 56t54.5 118.5t21 203.5q0 125 -21 202t-54.5 118.5t-76 55.5t-86.5 14q-45 0 -81 -14t-62 -38.5t-41 -57.5t-17 -70h-312q2 86 36 163.5t99.5 136t161.5 92t222 33.5q149 0 252.5 -43.5t169 -124.5 t95 -199.5t29.5 -267.5q0 -151 -29.5 -268.5t-95 -199.5t-169 -124.5t-252.5 -42.5q-126 0 -222 33.5t-161.5 91.5t-99.5 135t-36 163z" />
<glyph unicode="&#xe28;" horiz-adv-x="1238" d="M91 0v836q0 82 30.5 155.5t94 130.5t163 90.5t238.5 33.5q62 0 114.5 -7t98.5 -19q28 20 42.5 43.5t18.5 49.5h347q-3 -26 -15 -55t-34 -58t-58 -55t-88 -44q54 -55 79 -122t25 -143v-836h-299v827q0 55 -20 92.5t-52 60.5t-74 32.5t-85 9.5q-39 0 -79 -9.5t-73 -32.5 t-54 -60.5t-21 -92.5v-125h257v-265h-257v-437h-299z" />
<glyph unicode="&#xe29;" horiz-adv-x="1238" d="M91 384v836h299v-809q0 -53 17.5 -93.5t48 -66.5t72 -39.5t89.5 -13.5q51 0 93 13t73 38t48 65.5t17 96.5v218q-21 -57 -72.5 -94t-113.5 -37q-41 0 -76.5 15.5t-62.5 43t-43.5 63.5t-16.5 76t16.5 76t43.5 63.5t62.5 43t76.5 15.5q62 0 113.5 -37t72.5 -94v457h299v-836 q0 -80 -30.5 -154.5t-95 -130.5t-164.5 -89.5t-240 -33.5q-139 0 -238.5 33.5t-163 89.5t-94 130.5t-30.5 154.5z" />
<glyph unicode="&#xe2a;" horiz-adv-x="1226" d="M58 408q0 87 31.5 166.5t92.5 140.5t153.5 98.5t214.5 37.5q115 0 187 -24.5t99 -48.5v64q0 42 -18 74.5t-47.5 56.5t-71.5 36.5t-88 12.5q-97 0 -157.5 -44t-78.5 -108h-305q7 67 45 134t105.5 121t163.5 87.5t221 33.5q67 0 123.5 -7.5t107.5 -21.5q24 20 33.5 47.5 t9.5 48.5h347q-3 -24 -15.5 -54.5t-35.5 -60.5t-56 -56t-76 -41q92 -101 92 -247v-854h-299v498q-5 10 -22 27t-47.5 33.5t-73 27.5t-96.5 11q-53 0 -98 -14.5t-77 -40t-49.5 -60.5t-17.5 -77q0 -61 28 -100.5t71.5 -59t94 -19.5t95.5 18v-241q-149 -30 -259.5 -7t-182.5 82 t-108 145.5t-36 184.5z" />
<glyph unicode="&#xe2b;" horiz-adv-x="1238" d="M91 0v1220h299v-402q134 140 318 174h-128v228h567v-228h-244q63 -15 109 -50t76.5 -82.5t44.5 -106.5t14 -121v-632h-299v556q0 41 -8.5 79t-28.5 66.5t-54 45t-85 16.5q-54 0 -104.5 -26t-90 -66.5t-63.5 -89t-24 -92.5v-489h-299z" />
<glyph unicode="&#xe2c;" horiz-adv-x="1495" d="M21 1220h284l114 -780h6l213 780h226l216 -780h6l73 518q6 37 4 70.5t-14 60.5t-36 44t-63 20v157q56 1 91.5 13t57 33.5t33 52t17.5 71.5l6 46h271l-12 -79q-6 -39 -17 -75.5t-33 -65.5t-57 -50t-88 -30v-3q76 -25 106.5 -87.5t18.5 -134.5l-157 -1001h-317l-216 830h-6 l-218 -830h-320z" />
<glyph unicode="&#xe2d;" horiz-adv-x="1345" d="M55 751h583v-238h-254q-3 -66 20.5 -121t62 -94.5t90 -62t108.5 -22.5q61 0 116 24.5t97.5 74t67 124t24.5 175.5q0 106 -27 179.5t-71 120t-99.5 67t-113.5 20.5q-53 0 -98 -17t-81 -44.5t-60.5 -61t-35.5 -66.5l-283 79q26 76 77 141t124 113.5t166.5 76t200.5 27.5 q139 0 252 -45.5t193.5 -129t123.5 -200.5t43 -260t-43 -260t-123.5 -200.5t-193.5 -129t-252 -45.5q-150 0 -271.5 54.5t-203 155t-119.5 244.5t-20 321z" />
<glyph unicode="&#xe2e;" horiz-adv-x="1345" d="M55 751h583v-238h-254q-3 -66 20.5 -121t62 -94.5t90 -62t108.5 -22.5q61 0 116 24.5t97.5 74t67 124t24.5 175.5q0 106 -27 179.5t-71 120t-99.5 67t-113.5 20.5q-53 0 -98 -17t-81 -44.5t-60.5 -61t-35.5 -66.5l-283 79q26 76 77 141t124 113.5t166.5 76t200.5 27.5 q110 0 207 -32q27 18 39.5 46.5t15.5 52.5h347q-3 -26 -16 -56.5t-36.5 -61t-59 -55.5t-83.5 -39q97 -85 147.5 -208.5t50.5 -281.5q0 -143 -43 -260t-123.5 -200.5t-193.5 -129t-252 -45.5q-150 0 -271.5 54.5t-203 155t-119.5 244.5t-20 321z" />
<glyph unicode="&#xe2f;" horiz-adv-x="1153" d="M58 998q0 49 19.5 91.5t54.5 73t82 48.5t103 18q30 0 56 -1.5t44 -4.5q21 -3 37 -6v-171q-46 7 -74 -7t-28 -44q0 -32 32.5 -48t84.5 -16q54 0 106 18.5t94 56t68 91t26 123.5h299v-1220h-299v861q-18 -22 -51.5 -47.5t-81 -47t-106 -35.5t-125.5 -14q-73 0 -135.5 17.5 t-108 53.5t-71.5 89t-26 121z" />
<glyph unicode="&#xe30;" horiz-adv-x="736" d="M91 152v340h299v-125h254v-215h-553zM91 729v339h299v-125h254v-214h-553z" />
<glyph unicode="&#xe31;" d="M-687 1374v335h300v-137h661v-198h-961z" />
<glyph unicode="&#xe32;" horiz-adv-x="823" d="M30 952v268h205q129 0 222.5 -38.5t154.5 -106.5t91 -159.5t30 -195.5v-720h-299v690q0 55 -16 103.5t-47 83.5t-79 55t-112 20h-150z" />
<glyph unicode="&#xe33;" horiz-adv-x="762" d="M-446 1547q0 40 16 74t44 60.5t64.5 40.5t80.5 14q41 0 78.5 -14t65.5 -40.5t44 -60.5t16 -74q0 -39 -16 -73.5t-44 -60.5t-65.5 -41t-78.5 -15q-44 0 -80.5 15t-64.5 41t-44 60.5t-16 73.5zM0 952v268h204q128 0 222 -38.5t155 -106.5t91 -159.5t30 -195.5v-720h-300 v690q0 55 -15.5 103.5t-47 83.5t-79 55t-111.5 20h-149z" />
<glyph unicode="&#xe34;" d="M-1118 1374v198h1027v-81q0 -56 -38.5 -86.5t-96.5 -30.5h-892z" />
<glyph unicode="&#xe35;" d="M-1118 1374v198h728v137h299v-335h-1027z" />
<glyph unicode="&#xe36;" d="M-1118 1374v198h675q9 64 59 106.5t143 42.5q98 0 149.5 -51.5t51.5 -122.5q0 -36 -13 -67.5t-39 -54.5t-63 -37t-86 -14h-877z" />
<glyph unicode="&#xe37;" d="M-1118 1374v198h434v137h201v-137h93v137h299v-335h-1027z" />
<glyph unicode="&#xe38;" d="M-510 -91h419v-398h-299v192h-120v206z" />
<glyph unicode="&#xe39;" d="M-909 -91h350v-153q0 -42 22.5 -60.5t61.5 -18.5q40 0 62.5 18.5t22.5 60.5v153h299v-153q0 -61 -18.5 -109.5t-62.5 -82t-115.5 -51t-175.5 -17.5q-111 0 -184 16t-117 46.5t-62.5 74.5t-18.5 102h-64v174z" />
<glyph unicode="&#xe3a;" d="M-431 -265q0 36 14.5 68t39.5 55.5t59.5 37t76.5 13.5q41 0 75.5 -13.5t60 -37t39.5 -55.5t14 -68t-14 -68t-39.5 -55t-60 -37.5t-75.5 -14.5q-42 0 -76.5 14.5t-59.5 37.5t-39.5 55t-14.5 68z" />
<glyph unicode="&#xe3f;" horiz-adv-x="1257" d="M168 0v1438h429v173h99v-173q70 -3 146.5 -18t141.5 -55t106.5 -111.5t41.5 -185.5q0 -64 -20.5 -117.5t-58.5 -95t-91 -69.5t-117 -38v-3q74 -7 134.5 -35t103.5 -71t67 -100.5t24 -122.5q0 -85 -22.5 -149t-60.5 -109.5t-87 -75.5t-102 -48t-106.5 -25.5t-99.5 -8.5 v-186h-99v186h-429zM454 226h138h5v418h-5h-138v-418zM454 857h120h23v354h-29h-114v-354zM696 235q39 6 74 19t61 36t41.5 56.5t15.5 81.5q0 52 -15.5 89t-41.5 61.5t-61 38t-74 21.5v-403zM696 870q30 6 56.5 18.5t47.5 32t33 47t12 63.5q0 42 -12 72.5t-32 50.5t-47 31 t-58 17v-332z" />
<glyph unicode="&#xe40;" horiz-adv-x="604" d="M152 0v1220h299v-1220h-299z" />
<glyph unicode="&#xe41;" horiz-adv-x="1056" d="M152 0v1220h299v-1220h-299zM605 0v1220h298v-1220h-298z" />
<glyph unicode="&#xe42;" horiz-adv-x="664" d="M70 1642q0 107 75.5 171t206.5 64q50 0 89 -7.5t75.5 -15.5t73.5 -15.5t85 -7.5t86 4t63 8q30 6 52 12v-219q-22 -7 -49 -13q-24 -5 -56.5 -8.5t-71.5 -3.5q-55 0 -109.5 8t-98.5 12.5t-71 -1.5t-27 -34q0 -21 14.5 -39t30.5 -39t30.5 -47.5t14.5 -63.5v-1407h-300v1386 q0 47 -17.5 77t-38.5 54.5t-39 52t-18 72.5z" />
<glyph unicode="&#xe43;" horiz-adv-x="664" d="M-159.5 1593.5q-1.5 29.5 1.5 57.5q8 112 98.5 176.5t251.5 64.5h85q91 0 155 -15.5t106 -44.5t62 -69.5t23 -87.5q3 -51 -7 -85t-25.5 -59t-34 -44t-35 -38.5t-27.5 -44t-11 -59.5v-1345h-300v1363q0 63 24 96.5t52.5 57.5t52 47t23.5 66q0 30 -27.5 51.5t-78.5 21.5 h-10q-31 0 -55 -9.5t-39.5 -26t-24 -37.5t-6.5 -43v-14t1 -10q2 -6 3 -10h-253q-3 11 -4.5 40.5z" />
<glyph unicode="&#xe44;" horiz-adv-x="664" d="M-210 1648v219q22 -6 52 -12q25 -4 63 -8t86 -4q46 0 82.5 5.5t71 12t69.5 11.5t80 5q144 0 222.5 -60t78.5 -175q0 -45 -17.5 -72.5t-39 -52t-38.5 -54.5t-17 -77v-1386h-300v1410q0 37 13.5 60.5t30.5 42.5t30.5 37.5t13.5 45.5q0 28 -24.5 36t-67 6t-97.5 -8t-116 -6 q-39 0 -71 4t-56 8q-27 6 -49 12z" />
<glyph unicode="&#xe45;" horiz-adv-x="823" d="M30 952v268h205q129 0 222.5 -38.5t154.5 -106.5t91 -159.5t30 -195.5v-1087h-299v1057q0 55 -16 103.5t-47 83.5t-79 55t-112 20h-150z" />
<glyph unicode="&#xe46;" horiz-adv-x="1190" d="M61 873q0 67 15.5 130.5t54.5 111t103.5 76.5t161.5 29h44l180 -143l167 143h311v-1587h-298v1353l-189 -177l-171 143q-24 0 -50 -19.5t-26 -65.5q0 -30 11.5 -47t30.5 -25t41 -8t42 3v-225l-41 -3q-186 -14 -286.5 59t-100.5 252z" />
<glyph unicode="&#xe47;" d="M-1037 1374v164q0 55 18.5 102.5t58 83.5t103 56t152.5 20h510v-140h-422q-73 0 -103.5 -27.5t-30.5 -63.5v-37h52l155 92l157 -92h192v-158h-216l-133 88l-137 -88h-356z" />
<glyph unicode="&#xe48;" d="M-390 1785v274h299v-274h-299z" />
<glyph unicode="&#xe49;" d="M-626 1922v165h210q102 0 143 -33.5t41 -88.5v-15h320v-165h-621v73q0 15 -1 27t-7 20t-18.5 12.5t-35.5 4.5h-31z" />
<glyph unicode="&#xe4a;" d="M-681 1785v110q0 90 53.5 140t167.5 50h35l111 -76l107 76h39q223 0 223 -141v-16h122v-143h-381v137l-110 -79l-111 79v-137h-256z" />
<glyph unicode="&#xe4b;" d="M-486 1883v137h111v97h268v-97h110v-137h-110v-98h-268v98h-111z" />
<glyph unicode="&#xe4c;" d="M-492 1678v77q0 61 21 100t61 60.5t98.5 29.5t131.5 8h143v-165h-57q-56 0 -75.5 -20t-19.5 -59v-31h-303z" />
<glyph unicode="&#xe4d;" d="M-446 1547q0 40 16 74t44 60.5t64.5 40.5t80.5 14q41 0 78.5 -14t65.5 -40.5t44 -60.5t16 -74q0 -39 -16 -73.5t-44 -60.5t-65.5 -41t-78.5 -15q-44 0 -80.5 15t-64.5 41t-44 60.5t-16 73.5z" />
<glyph unicode="&#xe4e;" d="M-673 1688q0 63 35.5 113t98.5 79q52 32 122 36q-64 31 -64 110q0 32 14 64t39.5 61t60.5 53t75 38q80 35 175.5 42.5t198.5 7.5h37v-149q-39 3 -68.5 4.5t-50.5 1.5q-66 0 -123 -7.5t-99.5 -23.5t-68 -39.5t-25.5 -55.5q0 -43 43.5 -52t136.5 -9v-140q-29 3 -52.5 4.5 t-42.5 1.5q-60 0 -110.5 -9t-88.5 -24.5t-59.5 -38.5t-21.5 -50q0 -43 73 -43q46 0 87 14t87 35l73 -122q-52 -28 -119 -49t-134 -21q-12 3 -13 3h-11h-16q-85 9 -137 53.5t-52 111.5z" />
<glyph unicode="&#xe4f;" horiz-adv-x="1464" d="M107 611q0 130 49.5 243t134 198t198.5 134t244 49t243 -49t198 -134t134 -198t49 -243t-49 -244t-134 -199t-198 -134t-243 -49t-244 49t-198.5 134t-134 199t-49.5 244zM198 611q0 -110 42.5 -208t115 -170t170 -114.5t207.5 -42.5q109 0 206.5 42.5t170 114.5 t114.5 170t42 208q0 109 -42 206.5t-114.5 169.5t-170 114.5t-206.5 42.5q-110 0 -207.5 -42.5t-170 -114.5t-115 -169.5t-42.5 -206.5zM352 611q0 79 29.5 148t81 121.5t121.5 82t149 29.5t148.5 -29.5t121.5 -82t82 -121.5t30 -148t-30 -149t-82 -121.5t-121.5 -81.5 t-148.5 -30t-149 30t-121.5 81.5t-81 121.5t-29.5 149z" />
<glyph unicode="&#xe50;" horiz-adv-x="1214" d="M64 457q0 100 33.5 186.5t101.5 150.5t170 100.5t239 36.5t239 -36.5t170.5 -100.5t102 -150.5t33.5 -186.5q0 -98 -33.5 -184.5t-102 -149.5t-170.5 -100.5t-239 -37.5t-239 37.5t-170 100.5t-101.5 149.5t-33.5 184.5zM372 457q0 -49 15 -91.5t45 -73t74 -48.5t102 -18 q57 0 100.5 18t74.5 48.5t46.5 73t15.5 91.5q0 51 -15.5 93.5t-46.5 74t-74.5 48.5t-100.5 17q-58 0 -102 -17t-74 -48.5t-45 -74t-15 -93.5z" />
<glyph unicode="&#xe51;" horiz-adv-x="1214" d="M64 568q0 88 42 155.5t113.5 114t168 70t207.5 23.5q141 0 247 -34t175 -97.5t102 -152t31 -196.5q-3 -113 -50.5 -201t-131.5 -149t-201 -94.5t-257 -36.5q-81 -3 -145 2.5t-110 12.5q-54 8 -97 18l-70 235q58 -19 122 -32q55 -12 123.5 -19.5t141.5 -3.5q90 5 158.5 28 t115.5 59.5t71.5 82.5t24.5 98q3 112 -67 172.5t-192 60.5q-45 0 -84 -8t-68 -24t-45.5 -38t-16.5 -49q0 -51 56 -71t158 10l-9 -236l-50 -9q-96 -18 -180.5 -9t-147 47t-99 105t-36.5 166z" />
<glyph unicode="&#xe52;" horiz-adv-x="1577" d="M-12 1107l259 128q27 -16 54 -38.5t47 -52t32.5 -66t12.5 -80.5v-774h792v466l-151 -137l-158 137q-21 0 -39.5 -6t-32.5 -20t-22.5 -37.5t-6.5 -55.5q0 -32 12 -51t33.5 -29t49.5 -12t61 1v-197l-61 -6q-103 -10 -176 0.5t-120 44.5t-70 92t-24 145q-5 97 17 165.5 t63.5 112.5t101 64t131.5 20h98l143 -124l131 124h312v-921h-1379v891q0 64 -29 118.5t-81 97.5z" />
<glyph unicode="&#xe53;" horiz-adv-x="1238" d="M64 443q0 120 25.5 209.5t71 147.5t108.5 86.5t139 28.5h87l167 -122l150 122h326v-915h-302v665l-171 -141l-193 148q-15 -2 -30.5 -14.5t-28 -39t-21 -69t-8.5 -103.5q0 -74 16 -117.5t42 -66t61.5 -28t76.5 -2.5v-232l-88 -6q-133 -9 -215.5 22.5t-130.5 92.5 t-65 146.5t-17 187.5z" />
<glyph unicode="&#xe54;" horiz-adv-x="1281" d="M64 437q0 108 36.5 194.5t106.5 147.5t171.5 94t229.5 33h304v314h302v-548h-515q-169 0 -248 -59.5t-79 -166.5q0 -60 18 -99.5t54.5 -63.5t91 -35t126.5 -13q-36 26 -59 65.5t-23 86.5q0 39 16 73.5t44.5 59.5t66.5 39.5t80 14.5q43 0 81.5 -14.5t68 -39.5t45.5 -59.5 t16 -73.5q0 -47 -23.5 -86.5t-62.5 -65.5h276v-235h-617q-117 0 -210.5 24.5t-160 77.5t-101.5 135.5t-35 199.5z" />
<glyph unicode="&#xe55;" horiz-adv-x="1315" d="M64 437q0 189 108 308t308 152q-34 24 -51.5 58t-17.5 73q0 36 16.5 68.5t46.5 57.5t72.5 39.5t94.5 14.5t95 -14.5t73.5 -39.5t47 -57.5t16.5 -68.5q0 -34 -15.5 -65.5t-42.5 -56.5h131v314h303v-548h-550q-169 0 -248 -59.5t-79 -166.5q0 -60 18 -99.5t54.5 -63.5 t91 -35t126.5 -13q-36 26 -59 65.5t-23 86.5q0 39 16 73.5t44.5 59.5t66.5 39.5t80 14.5q43 0 81.5 -14.5t68 -39.5t45.5 -59.5t16 -73.5q0 -47 -23.5 -86.5t-62.5 -65.5h276v-235h-617q-117 0 -210.5 24.5t-160 77.5t-101.5 135.5t-35 199.5z" />
<glyph unicode="&#xe56;" horiz-adv-x="1214" d="M-12 1107l259 128q27 -16 54 -39t47 -53t32.5 -66.5t12.5 -78.5v-195q23 25 55 47t70 37.5t80.5 24.5t85.5 9q128 0 217.5 -34.5t145.5 -96t81 -147.5t25 -189q0 -129 -37 -218.5t-108 -145.5t-171.5 -80.5t-225.5 -24.5q-239 0 -370 88.5t-140 293.5h301 q11 -85 72 -122.5t146 -37.5q98 0 161.5 63.5t63.5 183.5q0 108 -59.5 172t-171.5 67q-42 0 -75.5 -9t-60.5 -21.5t-45.5 -28.5t-30.5 -29h-304v283q0 67 -29 121.5t-81 97.5z" />
<glyph unicode="&#xe57;" horiz-adv-x="1647" d="M64 446q0 120 25.5 209.5t71 147.5t108.5 86.5t139 28.5h87l167 -125l150 125h326v-683q64 3 95 42t31 107v580q0 57 14 101t35.5 76.5t48.5 55.5t54 38l244 -128q-51 -39 -79 -86.5t-28 -117.5v-571q0 -176 -100 -257t-291 -78l-326 3v669l-171 -145l-193 151 q-15 -2 -30.5 -14.5t-28 -39t-21 -69t-8.5 -104.5q0 -74 16 -118t42 -67t61.5 -28.5t76.5 -2.5v-232l-88 -6q-133 -9 -215.5 22.5t-130.5 92.5t-65 148t-17 189z" />
<glyph unicode="&#xe58;" horiz-adv-x="1238" d="M64 454q0 100 24.5 183t81 142.5t148.5 93t226 33.5h292v314h302v-548h-506q-139 0 -199.5 -52t-60.5 -166q0 -53 9 -87.5t22.5 -54.5t29 -29t27.5 -12l175 157l201 -160v189h302v-457h-326l-180 155l-152 -155l-105 -3q-62 -3 -118 25.5t-99 86.5t-68.5 144.5 t-25.5 200.5z" />
<glyph unicode="&#xe59;" horiz-adv-x="1388" d="M64 448q0 234 97 346t311 112h261l60 -137l10 21q22 53 64.5 84.5t118.5 31.5h36v101q0 43 13.5 80.5t37.5 67.5t53.5 50t64.5 30l244 -134q-57 -34 -82 -79.5t-25 -112.5v-240h-272q-43 0 -70.5 -33t-39.5 -79t-9.5 -96t18.5 -86l165 -375h-305l-282 669q-35 0 -64 -9 t-51 -33.5t-34 -66t-12 -109.5q0 -71 12 -115t38 -68.5t65 -33t93 -5.5v-229l-88 -6q-134 -9 -217.5 22.5t-130.5 93t-63.5 149t-16.5 189.5z" />
<glyph unicode="&#xe5a;" horiz-adv-x="1509" d="M58 998q0 49 19.5 91.5t54.5 73t82 48.5t103 18q30 0 56 -1.5t44 -4.5q21 -3 37 -6v-171q-46 7 -74 -7t-28 -44q0 -32 32.5 -48t84.5 -16q54 0 106 18.5t94 56t68 91t26 123.5h299v-1220h-299v861q-18 -22 -51.5 -47.5t-81 -47t-106 -35.5t-125.5 -14q-73 0 -135.5 17.5 t-108 53.5t-71.5 89t-26 121zM1199 0v1220h222v-1220h-222z" />
<glyph unicode="&#xe5b;" horiz-adv-x="2075" d="M91 617q0 222 104 362q52 76 120 111.5t148 35.5q64 0 122.5 -27.5t101.5 -77.5t68.5 -118.5t25.5 -148.5q0 -66 -15 -118t-42.5 -89t-65 -57.5t-81.5 -20.5q-36 0 -69.5 16t-59 42.5t-40.5 63t-15 78.5q0 40 15 76t40.5 64t57.5 44.5t68 16.5l31 -3q-52 119 -139 119 q-47 0 -88 -28t-71 -79t-48 -121t-18 -153t20.5 -149t56 -111.5t85.5 -70t110 -24.5q70 0 131.5 36.5t111 103.5t85 163.5t53.5 215.5q12 74 29 98t56 24q15 0 33.5 -18t38 -47.5t39 -70t36.5 -86.5l18 109q23 86 61 86q29 0 68.5 -48.5t68.5 -128.5q24 122 68 122 q34 0 69 -44t71 -115q19 56 36 86t47 30q21 0 45.5 -27.5t45.5 -66.5q24 48 70 42l165 -21q27 0 53 -15t26 -31q0 -18 -26 -35t-56 -20l-153 -15q-9 -30 -28.5 -57.5t-44.5 -27.5q-22 0 -46 32q-8 8 -17 26t-25 45q-16 -56 -40 -97t-49 -41q-21 0 -46.5 42.5t-59.5 114.5 q-12 -43 -22.5 -75t-17.5 -50q-27 -61 -59 -61q-28 0 -70 94q-12 25 -21.5 51.5t-21.5 52.5q-9 -42 -24 -83.5t-32.5 -75t-35.5 -55.5t-33 -22q-51 0 -67 53q-7 28 -9.5 46.5t-5.5 34.5q-4 32 -27 93q-25 -103 -67.5 -191t-97.5 -146q-149 -167 -338 -167q-93 0 -167.5 36.5 t-128 102t-82.5 159t-29 206.5zM501 669q0 -39 21.5 -64t51.5 -25q73 0 73 89q0 91 -73 91q-29 0 -51 -26t-22 -65z" />
<glyph unicode="&#x2000;" horiz-adv-x="1191" />
<glyph unicode="&#x2001;" horiz-adv-x="2383" />
<glyph unicode="&#x2002;" horiz-adv-x="1191" />
<glyph unicode="&#x2003;" horiz-adv-x="2383" />
<glyph unicode="&#x2004;" horiz-adv-x="794" />
<glyph unicode="&#x2005;" horiz-adv-x="595" />
<glyph unicode="&#x2006;" horiz-adv-x="397" />
<glyph unicode="&#x2007;" horiz-adv-x="397" />
<glyph unicode="&#x2008;" horiz-adv-x="297" />
<glyph unicode="&#x2009;" horiz-adv-x="476" />
<glyph unicode="&#x200a;" horiz-adv-x="132" />
<glyph unicode="&#x200c;" />
<glyph unicode="&#x200d;" />
<glyph unicode="&#x2010;" horiz-adv-x="686" d="M73 440v229h541v-229h-541z" />
<glyph unicode="&#x2011;" horiz-adv-x="686" d="M73 440v229h541v-229h-541z" />
<glyph unicode="&#x2012;" horiz-adv-x="686" d="M73 440v229h541v-229h-541z" />
<glyph unicode="&#x2013;" horiz-adv-x="1235" d="M94 416v213h1047v-213h-1047z" />
<glyph unicode="&#x2014;" horiz-adv-x="2471" d="M94 416v213h2283v-213h-2283z" />
<glyph unicode="&#x2018;" horiz-adv-x="558" d="M137 790v308q0 67 21.5 126t59.5 103.5t91 73t116 37.5v-131q-79 -29 -106.5 -80t-27.5 -126h134v-311h-288z" />
<glyph unicode="&#x2019;" horiz-adv-x="558" d="M137 790v135q78 24 104.5 76t26.5 128h-131v309h288v-309q0 -67 -22 -124t-60 -102t-90.5 -74.5t-115.5 -38.5z" />
<glyph unicode="&#x201c;" horiz-adv-x="934" d="M110 790v308q0 67 21 126t59 103.5t90 73t113 37.5v-131q-76 -29 -103.5 -80t-27.5 -126h131v-311h-283zM536 790v308q0 67 22 126t60 103.5t90.5 73t115.5 37.5v-131q-79 -29 -106.5 -80t-27.5 -126h134v-311h-288z" />
<glyph unicode="&#x201d;" horiz-adv-x="934" d="M110 790v135q76 26 103.5 77t27.5 127h-131v309h283v-309q0 -67 -20.5 -124t-58.5 -102t-90.5 -74.5t-113.5 -38.5zM536 790v135q79 26 107.5 77t28.5 127h-136v309h288v-309q0 -67 -21.5 -124t-59.5 -102t-91 -74.5t-116 -38.5z" />
<glyph unicode="&#x2022;" horiz-adv-x="1129" d="M107 611q0 95 36 178.5t97.5 145.5t145 97.5t179.5 35.5q95 0 178.5 -35.5t145.5 -97.5t97.5 -145.5t35.5 -178.5t-35.5 -178.5t-97.5 -146t-145.5 -98.5t-178.5 -36q-96 0 -179.5 36t-145 98.5t-97.5 146t-36 178.5z" />
<glyph unicode="&#x2026;" horiz-adv-x="2059" d="M198 0v288h291v-288h-291zM885 0v288h289v-288h-289zM1572 0v288h289v-288h-289z" />
<glyph unicode="&#x202f;" horiz-adv-x="476" />
<glyph unicode="&#x205f;" horiz-adv-x="595" />
<glyph unicode="&#xe000;" horiz-adv-x="1065" d="M0 0v1065h1065v-1065h-1065z" />
<glyph unicode="&#xf700;" horiz-adv-x="1205" d="M27 870q9 64 44.5 131t101 121.5t164 89t231.5 34.5q56 0 107 -7.5t97 -21.5q25 20 39 46t19 50h349q-5 -27 -17 -57t-36.5 -59.5t-62.5 -56.5t-93 -45q79 -80 113.5 -197t31.5 -260q-5 -146 -33.5 -264t-84 -200.5t-141.5 -128t-203 -45.5h-403l-64 457q-9 60 -26.5 90 t-65.5 30h-36v192h253q60 0 98.5 -31.5t47.5 -93.5l59 -420h73q41 0 82 23t73 73t51.5 128t19.5 190q0 186 -65 285t-188 99q-48 0 -85 -12.5t-65 -33.5t-46.5 -48.5t-27.5 -57.5h-311z" />
<glyph unicode="&#xf701;" d="M-1354 1374v198h841v-81q0 -56 -38.5 -86.5t-95.5 -30.5h-707z" />
<glyph unicode="&#xf702;" d="M-1354 1374v198h542v137h299v-335h-841z" />
<glyph unicode="&#xf703;" d="M-1354 1374v198h490q10 64 60 106.5t142 42.5q99 0 150.5 -51.5t51.5 -122.5q0 -36 -13 -67.5t-39 -54.5t-63 -37t-87 -14h-692z" />
<glyph unicode="&#xf704;" d="M-1354 1374v198h250v137h201v-137h91v137h299v-335h-841z" />
<glyph unicode="&#xf705;" d="M-800 1374v365h299v-365h-299z" />
<glyph unicode="&#xf706;" d="M-848 1556v183h201q94 0 140.5 -41t46.5 -105v-21h460v-198h-760v117q0 29 -14 47t-47 18h-27z" />
<glyph unicode="&#xf707;" d="M-1141 1374v164q0 53 17 91t47.5 62.5t72 36t92.5 11.5h73l119 -79l109 79h75q46 0 87 -10t70.5 -31.5t47 -56.5t17.5 -85v-18h314v-164h-571v140q0 18 -9 30q-4 6 -9 9l-131 -106l-150 106q-5 -3 -9 -9q-9 -12 -9 -27v-143h-253z" />
<glyph unicode="&#xf708;" d="M-1037 1502v186h152v128h268v-128h154v-186h-154v-128h-268v128h-152z" />
<glyph unicode="&#xf709;" d="M-940 1374v94q0 55 18 96t50 66t76.5 38t96.5 13h242v-198h-99q-39 0 -62 -18t-23 -55v-36h-299z" />
<glyph unicode="&#xf70a;" d="M-390 1374v365h299v-365h-299z" />
<glyph unicode="&#xf70b;" d="M-672 1556v183h203q94 0 140 -41t46 -105v-21h405v-198h-705v117q0 29 -14 47t-47 18h-28z" />
<glyph unicode="&#xf70c;" d="M-1001 1374v164q0 53 17 91t47.5 62.5t72.5 36t92 11.5h73l119 -79l111 79h73q46 0 87 -10t70.5 -31.5t47 -56.5t17.5 -85v-18h171v-164h-428v140q0 18 -9 30q-4 6 -8 9l-132 -106l-149 106q-6 -3 -10 -9q-9 -12 -9 -27v-143h-253z" />
<glyph unicode="&#xf70d;" d="M-665 1502v186h152v128h269v-128h153v-186h-153v-128h-269v128h-152z" />
<glyph unicode="&#xf70e;" d="M-504 1374v94q0 55 18 96t50 66t77 38t97 13h241v-198h-98q-39 0 -62 -18t-23 -55v-36h-300z" />
<glyph unicode="&#xf70f;" horiz-adv-x="1959" d="M82 903q9 60 44.5 121t100.5 110t161 80.5t229 31.5q144 0 245.5 -34.5t165 -92t91.5 -133.5t28 -159v-431q0 -107 57.5 -152.5t149.5 -45.5q47 0 86.5 10t68.5 33.5t44.5 61t15.5 93.5v824h298v-836q0 -80 -27.5 -154.5t-88.5 -130.5t-159 -89.5t-238 -33.5 q-138 0 -234 33.5t-156.5 89.5t-88 130.5t-27.5 154.5v443q0 49 -18 85.5t-49.5 61t-73.5 36.5t-90 12q-37 0 -73 -9.5t-67 -27.5t-54.5 -43.5t-35.5 -56.5l99 -76q-38 -19 -67 -54t-29 -83v-443h154v-229h-453v653q0 47 28.5 92.5t90.5 69.5z" />
<glyph unicode="&#xf710;" d="M-1077 1374v335h299v-137h778v-198h-1077z" />
<glyph unicode="&#xf711;" d="M-842 1547q0 40 15.5 74t44 60.5t65 40.5t79.5 14q42 0 79 -14t65.5 -40.5t44 -60.5t15.5 -74q0 -39 -15.5 -73.5t-44 -60.5t-65.5 -41t-79 -15q-43 0 -79.5 15t-65 41t-44 60.5t-15.5 73.5z" />
<glyph unicode="&#xf712;" d="M-1313 1374v164q0 55 19 102.5t59 83.5t103.5 56t152.5 20h510v-140h-422q-75 0 -104.5 -27.5t-29.5 -63.5v-37h52l155 92l156 -92h193v-158h-218l-131 88l-137 -88h-358z" />
<glyph unicode="&#xf713;" d="M-812 1785v274h299v-274h-299z" />
<glyph unicode="&#xf714;" d="M-1046 1922v165h210q101 0 142 -33.5t41 -88.5v-15h321v-165h-623v73q0 15 -1 27t-6.5 20t-18.5 12.5t-35 4.5h-30z" />
<glyph unicode="&#xf715;" d="M-1086 1785v110q0 90 53.5 140t165.5 50h37l110 -76l106 76h40q222 0 222 -141v-16h123v-143h-382v137l-109 -79l-110 79v-137h-256z" />
<glyph unicode="&#xf716;" d="M-906 1883v137h109v97h270v-97h108v-137h-108v-98h-270v98h-109z" />
<glyph unicode="&#xf717;" d="M-903 1678v77q0 61 21 100t61 60.5t98 29.5t131 8h144v-165h-59q-55 0 -74 -20t-19 -59v-31h-303z" />
<glyph unicode="&#xf718;" d="M-510 -519h419v-396h-299v192h-120v204z" />
<glyph unicode="&#xf719;" d="M-909 -519h350v-153q0 -40 22.5 -59.5t61.5 -19.5q40 0 62.5 19.5t22.5 59.5v153h299v-153q0 -61 -18.5 -109.5t-62.5 -82t-115.5 -50.5t-175.5 -17q-111 0 -184 15.5t-117 46t-62.5 75.5t-18.5 101h-64v174z" />
<glyph unicode="&#xf71a;" d="M-469 -693q0 75 52.5 124.5t136.5 49.5q40 0 75 -13t60.5 -37t39.5 -55.5t14 -68.5q0 -36 -14 -67t-39.5 -55t-60.5 -38t-75 -14q-42 0 -76 14t-59.5 38t-39.5 55t-14 67z" />
<glyph unicode="&#xf71d;" />
<glyph unicode="&#xf880;" />
<glyph horiz-adv-x="823" d="M-842 1547q0 40 15.5 74t44 60.5t65 40.5t79.5 14q42 0 79 -14t65.5 -40.5t44 -60.5t15.5 -74q0 -39 -15.5 -73.5t-44 -60.5t-65.5 -41t-79 -15q-43 0 -79.5 15t-65 41t-44 60.5t-15.5 73.5zM30 952v268h205q129 0 222.5 -38.5t154.5 -106.5t91 -159.5t30 -195.5v-720 h-299v690q0 55 -16 103.5t-47 83.5t-79 55t-112 20h-150z" />
<glyph d="M-942 1688q0 63 36 113t98 79q53 32 123 36q-64 31 -64 110q0 32 14 64t39.5 61t60.5 53t75 38q80 35 175.5 42.5t198.5 7.5h37v-149q-39 3 -68.5 4.5t-50.5 1.5q-66 0 -123 -7.5t-99.5 -23.5t-68 -39.5t-25.5 -55.5q0 -43 43 -52t137 -9v-140q-30 3 -53 4.5t-42 1.5 q-60 0 -110.5 -9t-88.5 -24.5t-59.5 -38.5t-21.5 -50q0 -43 73 -43q46 0 87 14t87 35l73 -122q-52 -28 -119 -49t-134 -21q-12 3 -14 3h-10h-16q-85 9 -137.5 53.5t-52.5 111.5z" />
<glyph />
<glyph />
<glyph d="M-1354 1374v198h250v137h201v-137h91v137h299v-335h-841zM-961 1785v274h299v-274h-299z" />
<glyph d="M-1374 1441v198h1027v-79q0 -58 -39 -88.5t-97 -30.5h-891z" />
<glyph d="M-1374 1441v198h727v137h300v-335h-1027z" />
</font>
</defs>
</svg>
